<?xml version="1.0" standalone="no"?>
<!DOCTYPE svg PUBLIC "-//W3C//DTD SVG 1.1//EN" "http://www.w3.org/Graphics/SVG/1.1/DTD/svg11.dtd" >
<svg xmlns="http://www.w3.org/2000/svg" xmlns:xlink="http://www.w3.org/1999/xlink" version="1.1">
<metadata></metadata>
<defs>
<font id="aliens__cowsregular" horiz-adv-x="926" >
<font-face units-per-em="2048" ascent="1638" descent="-410" />
<missing-glyph horiz-adv-x="670" />
<glyph horiz-adv-x="0" />
<glyph horiz-adv-x="682" />
<glyph unicode=" "  horiz-adv-x="670" />
<glyph unicode="&#x09;" horiz-adv-x="670" />
<glyph unicode="&#xa0;" horiz-adv-x="670" />
<glyph unicode="!" horiz-adv-x="667" d="M245 57q0 -33 21.5 -52.5t63.5 -19.5q43 0 64 18.5t21 53.5q0 34 -21.5 52.5t-63.5 18.5t-63.5 -19t-21.5 -52zM269 267q0 -11 6 -18t17 -7h33q30 0 49.5 16.5t21.5 44.5l27 1071q2 28 -17 45t-51 17h-63q-12 0 -17.5 -7.5t-5.5 -18.5v-1143z" />
<glyph unicode="&#x22;" horiz-adv-x="808" d="M267 1104q0 -21 19 -21h34q26 0 42 14t16 37v254q0 22 -16 36t-42 14h-34q-19 0 -19 -20v-314zM431 1104q0 -21 19 -21h34q26 0 42 14t16 37v254q0 22 -16 36t-42 14h-34q-19 0 -19 -20v-314z" />
<glyph unicode="#" horiz-adv-x="1153" d="M266 499q-2 -19 9.5 -33.5t31.5 -14.5h48l-44 -426q-1 -3 -1 -10t5.5 -11t17.5 -4h60q22 0 39 14.5t19 36.5l41 400h125l-44 -426q-1 -4 -1 -10q0 -7 5 -11t17 -4h60q22 0 39 14.5t20 36.5l40 400h68q11 0 17 4.5t7 18.5l4 49q2 21 -9.5 34t-32.5 13h-42l26 251h69 q12 0 17.5 4t6.5 18l5 50q2 20 -10.5 33.5t-31.5 13.5h-45l48 467v6q0 20 -20 21h-56q-33 0 -47 -20q-13 -16 -14 -35l-46 -439h-126l48 467v6q0 20 -20 21h-56q-33 0 -47 -20q-13 -16 -15 -35l-46 -439h-74q-12 0 -16.5 -4t-5.5 -18l-5 -49q-1 -20 11 -34t32 -14h47 l-27 -251h-75q-13 0 -17 -4t-5 -17zM503 570l27 251h125l-27 -251h-125z" />
<glyph unicode="$" d="M265 220q0 -95 27 -151q35 -71 122 -84v-155q0 -12 5.5 -18.5t19.5 -6.5h19q30 0 43 26q10 20 10 55v98q57 10 92 40t47 78q12 57 9 129q-5 118 -24 208q-19 89 -46.5 171.5t-64.5 175.5q-26 61 -60 158q-30 89 -46.5 169.5t-16.5 165.5q0 22 16 38t46 16t46 -15.5 t16 -38.5v-307q0 -20 16 -31t35 -11h62q25 0 24 21v263q0 93 -28 150q-37 71 -123 86v118q0 26 -5 41.5t-20 15.5h-17q-30 0 -43 -27q-12 -22 -12 -56v-91q-54 -11 -90 -42t-48 -77q-10 -48 -9 -111q0 -101 25 -215q35 -155 111 -338q35 -85 60 -160q62 -183 62 -353 q0 -23 -15.5 -38.5t-46.5 -15.5q-30 0 -45.5 15t-15.5 39v298q0 20 -18 32q-13 9 -33 9h-63q-23 0 -23 -21v-253z" />
<glyph unicode="%" horiz-adv-x="1403" d="M266 796q0 -28 9.5 -54t28.5 -48q44 -49 134 -49q88 0 136 48q42 42 41 103v499q0 66 -40 106q-48 46 -133 45q-86 0 -135 -45q-21 -20 -31 -48t-10 -58v-499zM383 799v493q0 23 14 36.5t44 13.5q29 0 43 -14.5t14 -35.5v-493q0 -20 -14 -34.5t-42 -14.5q-30 0 -44.5 14 t-14.5 35zM491 15q0 -9 5 -12t18 -3h45q21 0 37.5 14.5t22.5 36.5l294 1356q1 3 1 8q0 18 -20 19h-44q-30 0 -45 -20q-9 -10 -17 -35l-296 -1354q-1 -4 -1 -10zM786 140q0 -28 9.5 -54t29.5 -48q44 -49 134 -49q87 0 135 48q42 42 42 103v499q0 66 -41 106q-48 46 -133 45 q-86 0 -134 -45q-21 -20 -31.5 -48t-10.5 -58v-499zM903 143v493q0 23 14 36.5t44 13.5q29 0 43.5 -14.5t14.5 -35.5v-493q0 -20 -14 -34.5t-43 -14.5q-30 0 -44.5 14t-14.5 35z" />
<glyph unicode="&#x26;" horiz-adv-x="2117" d="M235 17q0 -11 5 -14.5t15 -2.5l1590 124q37 4 38 54v24q0 13 -3 15t-17 1l-1592 -126q-20 -2 -28 -15.5t-8 -37.5v-22zM235 1138q0 -12 5 -15.5t15 -2.5l1589 125q37 4 38 54v19q0 13 -2 17t-6 4q-6 0 -12 -1l-1591 -126q-20 -2 -28 -15t-8 -36v-23zM254 218 q0 -7 3.5 -10.5t13.5 -2.5l45 4q18 2 31.5 14t15.5 29l7 90l91 8l7 -89q1 -18 14.5 -28t32.5 -8l44 3q12 1 15.5 5.5t2.5 15.5l-87 753q-4 22 -27 21l-95 -8q-13 -1 -19 -7t-8 -19l-87 -766v-5zM377 418l37 450h2l38 -445zM887 268q0 -19 21 -18l42 3q20 2 33 15t12 31 l-18 472l114 -438q7 -33 17.5 -50t32.5 -15l43 3q20 1 20 21v770q0 11 -3.5 15.5t-15.5 3.5l-46 -5q-18 -1 -31 -13.5t-10 -31.5l17 -469l-113 430q-7 35 -19.5 53t-29.5 17l-46 -4q-12 -1 -16 -5t-4 -15v-770zM1546 325q0 -12 4 -15.5t16 -3.5l142 12q70 5 113.5 46.5 t43.5 105.5v524q0 25 -9 49t-27 42q-37 37 -104 37l-18 -1l-141 -11q-12 -1 -16 -5t-4 -16v-764zM1653 406v619l53 3q27 2 40 -10t13 -32v-525q0 -19 -13 -33.5t-36 -16.5z" />
<glyph unicode="'" horiz-adv-x="644" d="M267 1104q0 -21 19 -21h34q26 0 42 14t16 37v254q0 22 -16 36t-42 14h-34q-19 0 -19 -20v-314z" />
<glyph unicode="(" horiz-adv-x="755" d="M267 620q0 -271 41 -443q32 -139 90 -216q41 -55 91 -80q11 -5 21 -6q13 0 17 9l12 17q6 10 6 18q0 12 -15 24q-14 12 -27 34q-42 60 -65 186q-34 182 -34 481v144q0 299 34 481q23 127 65 187q12 19 27 34q15 13 15 25q0 7 -6 17l-12 18q-5 6 -18 6q-12 0 -20 -3 q-51 -28 -91 -80q-57 -75 -90 -218q-42 -172 -41 -442v-193z" />
<glyph unicode=")" horiz-adv-x="757" d="M212 -81q0 -7 7 -18l11 -17q5 -9 19 -9q12 0 20 6q51 27 90 80q57 77 91 216q41 175 41 443v193q0 268 -41 442q-35 144 -91 218q-38 50 -90 80q-9 3 -20 3q-13 0 -19 -6l-11 -18q-6 -10 -7 -18q0 -12 15 -24q15 -15 28 -34q42 -64 65 -187q33 -176 33 -481v-144 q0 -170 -10 -287q-18 -222 -55 -313q-31 -77 -61 -101q-15 -13 -15 -24z" />
<glyph unicode="*" horiz-adv-x="949" d="M267 683q0 -15 5 -19.5t19 -4.5l118 2l-85 -73q-14 -7 -14 -19q0 -4 5 -15q9 -17 32 -31l31 -18q10 -6 16 -7q10 0 16 15l54 99l22 -103q0 -26 25 -26q20 -2 43 12l31 17q7 4 10.5 9t3.5 9t-5 15l-60 97l102 -33q9 -5 16 -5q11 0 20 13q11 17 11 43v37q0 15 -5.5 19 t-19.5 4l-112 -2l78 70q16 7 16 22q0 6 -3 12q-10 19 -32 32l-31 19q-11 5 -16 5t-9 -3.5t-9 -11.5l-56 -101l-21 106q0 26 -24 28q-23 0 -43 -12l-31 -18q-15 -9 -15 -18q0 -3 6 -16l59 -97l-101 34q-9 5 -16 5q-12 0 -20 -12q-12 -16 -11 -44v-35z" />
<glyph unicode="+" horiz-adv-x="924" d="M258 657q0 -19 9 -23.5t28 -4.5h107v-37q0 -47 15 -76q9 -16 20 -24t29 -8h32q15 0 20 5t5 19v121h37q47 0 77 15.5t30 47.5v30q0 18 -7.5 22.5t-29.5 4.5h-107v38q0 46 -12 74q-14 33 -46 33h-34q-19 0 -24 -9.5t-5 -29.5v-106h-37q-48 0 -74 -11q-33 -14 -33 -46v-35z " />
<glyph unicode="," horiz-adv-x="659" d="M245 57q0 -33 21.5 -52t62.5 -20v-76q-1 -12 12 -12q30 0 53 40q22 42 22 104q0 37 -22 62t-64 25q-41 0 -63 -18.5t-22 -52.5z" />
<glyph unicode="-" horiz-adv-x="855" d="M262 533q0 -15 7 -20t19 -5h253q25 0 39 17.5t14 44.5v39q0 15 -5.5 19.5t-18.5 4.5h-256q-23 0 -37.5 -15.5t-14.5 -39.5v-45z" />
<glyph unicode="." horiz-adv-x="660" d="M245 57q0 -33 21.5 -52.5t63.5 -19.5q43 0 64 18.5t21 53.5q0 34 -21.5 52.5t-63.5 18.5t-63.5 -19t-21.5 -52z" />
<glyph unicode="/" horiz-adv-x="789" d="M229 15q0 -9 5.5 -12t18.5 -3h58q22 0 39.5 14.5t19.5 36.5l173 1356v6q0 20 -19 21h-57q-33 0 -47 -20q-13 -16 -15 -35l-175 -1354q-1 -4 -1 -10z" />
<glyph unicode="0" d="M265 149q0 -67 44 -115q51 -54 152 -54q95 0 153 54q48 47 48 115v1134q0 34 -11.5 65t-35.5 55q-52 52 -150 52t-152 -52q-25 -23 -36.5 -54.5t-11.5 -65.5v-1134zM402 155v450l123 115v-565q0 -21 -15 -37.5t-45 -16.5q-31 0 -47 15t-16 39zM402 694v584q0 24 15 39.5 t46 15.5t46.5 -15.5t15.5 -38.5v-468z" />
<glyph unicode="1" horiz-adv-x="820" d="M234 1367q0 -4 2 -14l6 -21q14 -51 51 -51q10 0 20 3l28 8v-1178h-37q-34 0 -51 -15t-17 -51v-21q0 -15 5 -21t20 -6h300q23 0 24 28v20q0 37 -15.5 51.5t-52.5 14.5h-38v1282q0 37 -37 38h-22q-16 0 -26 -4q-5 -2 -25 -7l-118 -37q-10 -4 -13.5 -7.5t-3.5 -11.5z" />
<glyph unicode="2" d="M241 34q0 -15 9 -24.5t26 -9.5h363q24 0 24 28v20q0 35 -16.5 52.5t-45.5 17.5h-205q41 87 103 279q65 197 111 382q52 209 52 308v196q0 34 -11.5 65t-35.5 55q-52 52 -150 52t-152 -52q-25 -23 -36.5 -54.5t-11.5 -65.5v-300q0 -13 4.5 -18t19.5 -5h59q22 0 38 15 t16 37v266q0 25 15 40t46 15t46.5 -15.5t15.5 -38.5v-189q0 -53 -12 -129q-26 -145 -78 -320q-47 -160 -104 -324q-49 -142 -77 -232q-13 -39 -13 -51z" />
<glyph unicode="3" d="M265 149q0 -67 44 -115q51 -54 152 -54q96 0 153 54q48 47 48 115v468q0 41 -16.5 68.5t-52.5 43.5q69 30 69 109v445q0 34 -11.5 65t-35.5 55q-52 52 -150 52t-152 -52q-25 -23 -36.5 -54.5t-11.5 -65.5v-300q0 -13 4.5 -18t19.5 -5h59q22 0 38 15t16 37v266q0 25 15 40 t46 15t46.5 -15.5t15.5 -38.5v-438q0 -21 -15 -37t-45 -16h-68q-16 0 -20.5 -3.5t-4.5 -18.5v-52q0 -20 15 -34.5t38 -14.5h38q31 0 46.5 -15t15.5 -39v-456q0 -21 -15 -37.5t-45 -16.5q-31 0 -47 15t-16 39v288q0 23 -16 38t-37 15h-60q-15 0 -19.5 -5t-4.5 -20v-322z" />
<glyph unicode="4" horiz-adv-x="925" d="M238 317q0 -10 6 -13t22 -3h258v-249q0 -22 15.5 -37t37.5 -15h59q16 0 21 6.5t5 22.5v845q0 12 -4.5 17.5t-19.5 5.5h-60q-22 0 -38 -15t-16 -37v-425h-134l149 988v6q0 20 -21 21h-55q-31 0 -46 -20q-6 -7 -10.5 -17t-5.5 -19l-162 -1053q-1 -3 -1 -9z" />
<glyph unicode="5" horiz-adv-x="928" d="M265 149q0 -67 44 -115q51 -54 152 -54q96 0 153 54q48 47 48 115v588q0 81 -37.5 123.5t-98.5 42.5q-53 0 -87 -20t-37 -46v478h168q65 0 65 71v20q0 28 -25 28h-321q-15 0 -19.5 -5.5t-4.5 -20.5v-701q0 -15 3.5 -19.5t18.5 -4.5h66q19 0 32.5 15.5t19.5 38.5 q4 20 23 34t45 14q22 0 37 -15.5t15 -36.5v-578q0 -21 -15 -37.5t-45 -16.5q-31 0 -47 15t-16 39v288q0 23 -16 38t-37 15h-60q-15 0 -19.5 -5t-4.5 -20v-322z" />
<glyph unicode="6" d="M265 149q0 -76 49 -120q52 -49 147 -49q43 0 80 11.5t64 33.5q58 47 57 124v528q0 74 -39 122q-44 49 -112 49q-48 0 -75 -18t-34 -49v498q0 23 15.5 38.5t45.5 15.5t46 -15.5t16 -38.5v-278q0 -19 16 -30t35 -11h62q25 0 24 20v304q0 32 -12 63t-37 55q-57 53 -152 53 q-96 0 -148 -54q-23 -25 -35.5 -55.5t-12.5 -62.5v-1134zM402 155v506q0 26 16.5 47.5t44.5 21.5q32 0 47 -15.5t15 -39.5v-520q0 -21 -15 -37.5t-45 -16.5q-31 0 -47 15t-16 39z" />
<glyph unicode="7" horiz-adv-x="874" d="M245 1386q0 -70 64 -71h176l-202 -1290q-1 -3 -1 -10q0 -9 5 -12t18 -3h59q22 0 39.5 14.5t19.5 36.5l212 1356v5q0 21 -22 22h-343q-25 0 -25 -28v-20z" />
<glyph unicode="8" d="M265 149q0 -67 44 -115q51 -54 152 -54q95 0 153 54q48 47 48 115v469q0 42 -16.5 69.5t-52.5 42.5q69 31 69 109v444q0 34 -11.5 65t-35.5 55q-52 52 -150 52t-152 -52q-25 -23 -36.5 -54.5t-11.5 -65.5v-444q0 -82 67 -109q-67 -30 -67 -112v-469zM402 155v458 q0 25 15 40t46 15t46.5 -15t15.5 -39v-459q0 -21 -15 -36.5t-45 -17.5q-31 0 -47 15t-16 39zM402 843v435q0 25 15 40t46 15t46.5 -15.5t15.5 -38.5v-436q0 -21 -15 -37.5t-45 -16.5q-31 0 -47 15t-16 39z" />
<glyph unicode="9" d="M265 773q0 -73 38 -119q43 -51 113 -51q49 0 75.5 20t33.5 53v-521q0 -23 -15.5 -38.5t-46.5 -15.5h-8q-27 2 -40 17t-13 37v298q0 19 -16 29.5t-35 10.5h-62q-23 0 -23 -20v-323q0 -36 13.5 -67.5t40.5 -53.5q54 -49 145 -49t145 49q26 22 39 53.5t13 67.5v1134 q0 31 -11 62t-33 55q-52 54 -153 54q-97 0 -152 -53q-23 -23 -35.5 -54t-12.5 -64v-511zM402 775v504q0 22 15 38t45 16q31 0 47 -15.5t16 -38.5v-491q0 -26 -16.5 -46.5t-45.5 -20.5q-61 0 -61 54z" />
<glyph unicode=":" horiz-adv-x="660" d="M245 54q0 -33 21.5 -52t63.5 -19q43 0 64 18.5t21 52.5t-21.5 53t-63.5 19t-63.5 -19.5t-21.5 -52.5zM245 1037q0 -33 21.5 -52.5t63.5 -19.5q43 0 64 19t21 53t-21.5 52.5t-63.5 18.5t-63.5 -19t-21.5 -52z" />
<glyph unicode=";" horiz-adv-x="660" d="M245 57q0 -33 21.5 -52t62.5 -20v-76q-1 -12 12 -12q30 0 53 40q22 42 22 104q0 37 -22 62t-64 25q-41 0 -63 -18.5t-22 -52.5zM245 1037q0 -33 21.5 -52.5t63.5 -19.5q43 0 64 19t21 53t-21.5 52.5t-63.5 18.5t-63.5 -19t-21.5 -52z" />
<glyph unicode="&#x3c;" horiz-adv-x="766" d="M243 716l128 -283q20 -43 61 -43h59q9 0 14 5t2 11l-150 310l150 310q1 2 1 5q0 4 -5 7.5t-12 3.5h-59q-41 0 -61 -43z" />
<glyph unicode="=" horiz-adv-x="914" d="M262 544q0 -15 7 -20.5t19 -5.5h304q30 0 46 19.5t16 43.5v33q0 15 -5.5 19.5t-19.5 4.5h-306q-30 0 -45.5 -16t-15.5 -41v-37zM262 763q0 -15 7 -20.5t19 -5.5h304q30 0 46 19t16 44v33q0 15 -5.5 19.5t-19.5 4.5h-306q-30 0 -45.5 -16t-15.5 -41v-37z" />
<glyph unicode="&#x3e;" horiz-adv-x="798" d="M268 400q0 -4 4.5 -7.5t12.5 -3.5h58q41 0 61 43l128 284l-128 282q-20 43 -61 43h-58q-9 0 -14 -5t-2 -11l149 -309l-149 -311q-1 -2 -1 -5z" />
<glyph unicode="?" horiz-adv-x="937" d="M273 988q0 -21 25 -22h61q19 0 35.5 11t16.5 30v272q0 23 16 38.5t46 15.5t45.5 -16t15.5 -38q0 -107 -10 -180q-17 -129 -60 -269q-21 -69 -34 -133q-37 -170 -36 -375v-54q0 -26 24 -26h34q38 0 58 69q14 45 16 131q2 79 13 137q10 52 23.5 99t34.5 105q18 49 32 101 q34 123 40 291q2 91 -14 164q-16 53 -63 84.5t-118 31.5q-112 0 -161 -83q-39 -66 -40 -176v-208zM370 57q0 -33 21.5 -52.5t62.5 -19.5q43 0 64.5 18.5t21.5 53.5q0 34 -21.5 52.5t-64.5 18.5q-41 0 -62.5 -19t-21.5 -52z" />
<glyph unicode="@" horiz-adv-x="1354" d="M282 166q0 -89 28.5 -159t83.5 -119q53 -48 127 -73t166 -25h83q17 0 17 17v31q0 15 -10 25t-26 10h-64q-161 0 -241 79.5t-80 228.5v853q0 144 86 224q83 78 225 77q156 0 242 -79t86 -222v-871q0 -28 -17 -46.5t-41 -18.5q-23 0 -43 20t-20 46v880q0 34 -12 65.5 t-37 54.5q-58 52 -150 52q-93 0 -147 -52q-26 -23 -39 -55t-13 -65v-879q0 -68 49 -116q54 -54 151 -54q82 0 124 56q45 -45 122 -45q65 0 109 41q47 42 47 115v880q0 86 -27.5 156.5t-80.5 119.5q-52 49 -126.5 76t-166.5 27t-167 -26t-129 -76q-53 -49 -81 -119.5 t-28 -157.5v-876zM624 170v871q0 24 15.5 39t45.5 15q31 0 46.5 -15t15.5 -39v-871q0 -23 -15 -39t-45 -16q-31 0 -47 15.5t-16 39.5z" />
<glyph unicode="A" horiz-adv-x="887" d="M230 18q0 -10 5 -14t18 -4h65q22 0 36.5 14.5t15.5 36.5l13 194h119l13 -194q1 -22 16 -36.5t38 -14.5h65q15 0 18.5 5t2.5 20l-117 1379q-3 18 -12 24t-29 6h-108q-20 0 -29.5 -6t-11.5 -24l-118 -1379v-7zM388 359l55 873l54 -873h-109z" />
<glyph unicode="B" d="M265 26q0 -15 4.5 -20.5t19.5 -5.5h172q103 0 157 58q22 23 33 53t11 61v415q0 49 -10.5 85t-39.5 59q30 22 40 61t10 94v376q0 30 -11 61t-33 54q-53 57 -153 57h-176q-15 0 -19.5 -5.5t-4.5 -20.5v-1382zM402 118v555h66q34 0 49 -30q7 -17 8 -57v-413q0 -23 -16 -39 t-46 -16h-61zM402 787v528h61q30 0 46 -15.5t16 -38.5v-386q0 -41 -8 -58q-15 -30 -49 -30h-66z" />
<glyph unicode="C" horiz-adv-x="931" d="M267 150q0 -36 13.5 -67.5t39.5 -53.5q54 -49 144 -49q45 0 83 12.5t64 36.5q26 22 40 53.5t14 67.5v454q0 20 -25 20h-62q-20 0 -33 -9q-18 -12 -18 -32v-428q0 -21 -14.5 -37.5t-46.5 -16.5q-31 0 -46.5 15t-15.5 39v1124q0 23 15.5 38.5t45.5 15.5t46.5 -15.5 t16.5 -38.5v-430q0 -19 16 -29.5t35 -10.5h62q23 0 24 21v454q0 35 -14 66t-40 55q-55 50 -144 50q-45 0 -82 -13t-64 -36t-40.5 -54t-13.5 -68v-1134z" />
<glyph unicode="D" d="M267 26q0 -16 5.5 -21t24.5 -5h166q94 0 148 45.5t54 127.5v1089q0 34 -12.5 65.5t-35.5 53.5q-55 52 -150 53h-176q-15 0 -19.5 -5.5t-4.5 -20.5v-1382zM404 118v1197h61q30 0 46 -15.5t16 -38.5v-1088q0 -22 -15 -38.5t-42 -16.5h-66z" />
<glyph unicode="E" horiz-adv-x="837" d="M267 26q0 -16 5.5 -21t25.5 -5h263q25 0 25 28v20q0 35 -16.5 52.5t-46.5 17.5h-119v533h98q30 0 46.5 18t16.5 52v21q0 27 -24 27h-137v546h119q30 0 46.5 18t16.5 53v20q0 28 -25 28h-270q-15 0 -19.5 -5.5t-4.5 -20.5v-1382z" />
<glyph unicode="F" horiz-adv-x="809" d="M265 28q0 -16 4.5 -22t19.5 -6h59q22 0 38 15t16 37v599h98q63 0 63 70v20q0 28 -24 28h-137v546h119q63 0 62 71v20q0 28 -24 28h-270q-15 0 -19.5 -5.5t-4.5 -20.5v-1380z" />
<glyph unicode="G" horiz-adv-x="924" d="M263 150q0 -36 14 -67.5t40 -53.5q54 -49 144 -49q45 0 82.5 12.5t64.5 36.5q27 22 40.5 53.5t13.5 67.5v496q0 22 -23 23h-156q-25 0 -24 -27v-33q0 -35 11.5 -51.5t40.5 -16.5h14v-386q0 -21 -15 -37.5t-47 -16.5q-31 0 -46.5 15t-15.5 39v1124q0 23 16 38.5t46 15.5 t46 -15.5t16 -38.5v-430q0 -19 18 -31q14 -10 33 -9h62q25 0 24 21v454q0 35 -13.5 66t-39.5 55q-27 23 -63.5 36.5t-80.5 13.5q-89 0 -147 -49q-27 -23 -41 -54t-14 -68v-1134z" />
<glyph unicode="H" horiz-adv-x="922" d="M265 26q0 -14 5 -20t20 -6h57q23 0 39 15t16 39v618h119v-618q0 -25 16 -39.5t39 -14.5h57q15 0 20 6t5 20v1383q0 14 -4.5 19.5t-19.5 5.5h-60q-22 0 -37.5 -14.5t-15.5 -39.5v-593h-119v593q0 25 -15.5 39.5t-37.5 14.5h-60q-15 0 -19.5 -5.5t-4.5 -19.5v-1383z" />
<glyph unicode="I" horiz-adv-x="670" d="M267 31q0 -31 30 -31h76q31 0 31 31v1378q0 14 -4.5 19.5t-19.5 5.5h-59q-22 0 -38 -15t-16 -39v-1349z" />
<glyph unicode="J" horiz-adv-x="925" d="M265 150q0 -30 12 -59.5t36 -54.5q53 -56 149 -56h3q92 0 147 53q25 23 37.5 54t12.5 64v1257q0 15 -4.5 20.5t-19.5 5.5h-59q-22 0 -38 -15t-16 -38v-1225q0 -20 -15.5 -37.5t-49.5 -17.5q-29 1 -43.5 16t-14.5 38v473q0 20 -18 32q-13 9 -33 9h-63q-23 0 -23 -22v-497z " />
<glyph unicode="K" d="M265 26q0 -15 4.5 -20.5t19.5 -5.5h59q22 0 38 15t16 37v620h46l96 -621q2 -22 21.5 -36.5t41.5 -14.5h64q12 0 16 2.5t4 10.5q0 7 -1 12l-111 701l111 683q1 4 1 12q0 7 -4 10t-16 3h-64q-22 0 -41 -14.5t-22 -37.5l-95 -596h-47v595q0 22 -16 37.5t-38 15.5h-59 q-15 0 -19.5 -5.5t-4.5 -20.5v-1382z" />
<glyph unicode="L" horiz-adv-x="820" d="M265 26q0 -14 4.5 -20t19.5 -6h270q25 0 24 28v20q0 70 -62 70h-119v1263q0 22 -16 37.5t-38 15.5h-59q-15 0 -19.5 -5.5t-4.5 -20.5v-1382z" />
<glyph unicode="M" horiz-adv-x="1109" d="M265 26q0 -14 5 -20t20 -6h57q23 0 39 15t16 39l-21 940l3 75l95 -1039q3 -30 33 -30h85q32 0 33 30l96 1040l4 -76l-22 -940q0 -25 16 -39.5t40 -14.5h56q15 0 20 6t5 20v1383q0 14 -4.5 19.5t-19.5 5.5h-115q-22 0 -39.5 -14.5t-20.5 -37.5l-91 -1119l-92 1119 q-2 22 -19 37t-40 15h-110q-19 0 -24 -5t-5 -20v-1383z" />
<glyph unicode="N" horiz-adv-x="922" d="M265 26q0 -14 5 -20t20 -6h57q23 0 39.5 15t15.5 39l-19 832l138 -839q4 -21 19 -34t36 -13h57q15 0 20 6t5 20v1383q0 14 -4.5 19.5t-19.5 5.5h-60q-22 0 -38.5 -15t-14.5 -39l19 -832l-139 840q-4 21 -18 33.5t-34 12.5h-60q-15 0 -19.5 -5.5t-4.5 -19.5v-1383z" />
<glyph unicode="O" d="M265 153q0 -32 12 -63t37 -55q54 -54 150 -54q94 0 151 55q48 48 48 117v1130q0 33 -12.5 64.5t-37.5 54.5q-26 25 -64 38.5t-85 13.5t-85 -14t-63 -38q-25 -22 -38 -53.5t-13 -65.5v-1130zM402 156v1123q0 23 15.5 38.5t46.5 15.5q30 0 46 -15.5t16 -38.5v-1123 q0 -23 -15.5 -39t-45.5 -16q-31 0 -47 15.5t-16 39.5z" />
<glyph unicode="P" horiz-adv-x="905" d="M265 26q0 -15 4.5 -20.5t19.5 -5.5h59q22 0 38 15t16 37v486h59q45 0 82.5 12.5t64.5 36.5q27 22 40.5 53.5t13.5 67.5v554q0 36 -13.5 67.5t-39.5 55.5q-54 49 -144 49h-176q-15 0 -19.5 -5.5t-4.5 -20.5v-1382zM402 656v659h61q30 0 46 -15.5t16 -38.5v-551 q0 -22 -15 -38t-42 -16h-66z" />
<glyph unicode="Q" d="M265 153q-1 -54 30 -96q33 -47 94 -66v-30q0 -29 15.5 -45.5t46.5 -16.5h60q10 0 15.5 6t5.5 15v70q64 17 97.5 62.5t33.5 100.5v1130q0 33 -12.5 64.5t-37.5 54.5q-26 25 -64 38.5t-85 13.5t-85 -14t-63 -38q-25 -22 -38 -53.5t-13 -65.5v-1130zM402 156v1123 q0 23 15.5 38.5t46.5 15.5q30 0 46 -15.5t16 -38.5v-1123q0 -14 -7 -26q-18 22 -60 23q-35 0 -54 -19q-3 10 -3 22z" />
<glyph unicode="R" horiz-adv-x="925" d="M265 26q0 -15 4.5 -20.5t19.5 -5.5h59q22 0 38 15t16 37v542h61q30 0 46 -15.5t16 -38.5v-488q0 -22 15.5 -37t37.5 -15h59q15 0 20 5.5t5 20.5v515q0 78 -67 108q67 44 67 138v475q0 34 -11.5 65t-36.5 54q-54 52 -149 53h-176q-15 0 -19.5 -5.5t-4.5 -20.5v-1382z M402 713v602h61q30 0 46 -15.5t16 -38.5v-472q0 -31 -12 -51q-15 -26 -45 -25h-66z" />
<glyph unicode="S" d="M263 1284q0 -117 20 -216q32 -165 112 -366q26 -65 63 -171q32 -96 49.5 -187t17.5 -189q0 -23 -15.5 -38.5t-46.5 -15.5q-30 0 -45.5 15t-15.5 39v298q0 20 -18 32q-13 9 -33 9h-63q-23 0 -23 -21v-323q0 -36 13 -67.5t39 -53.5q54 -49 146 -49q45 0 82.5 12.5 t63.5 36.5q26 22 39.5 53.5t13.5 67.5q0 124 -19 228q-33 177 -111 374q-37 94 -63 170q-33 94 -50.5 179.5t-17.5 177.5q0 22 16 38t46 16t46 -15.5t16 -38.5v-307q0 -20 16 -31t35 -11h62q25 0 24 21v333q0 36 -13.5 67t-40.5 55q-27 23 -64.5 36t-82.5 13q-44 0 -81 -13 t-63 -36t-40 -54t-14 -68z" />
<glyph unicode="T" horiz-adv-x="849" d="M228 1386q0 -35 16.5 -53t46.5 -18h68v-1285q0 -16 6.5 -23t22.5 -7h79q30 0 30 30v1285h63q30 0 46.5 17.5t16.5 53.5v20q0 28 -25 28h-345q-25 0 -25 -28v-20z" />
<glyph unicode="U" d="M265 150q0 -69 52 -118q55 -52 148 -52q92 0 148 54q25 23 37 53.5t12 62.5v1258q0 15 -5 20.5t-20 5.5h-59q-22 0 -37.5 -15t-15.5 -38v-1226q0 -23 -15.5 -38.5t-46.5 -15.5q-32 0 -46.5 16t-14.5 38v1226q0 22 -16 37.5t-38 15.5h-59q-15 0 -19.5 -5.5t-4.5 -20.5 v-1258z" />
<glyph unicode="V" horiz-adv-x="877" d="M225 1419q0 -6 1 -10l117 -1379q2 -16 9 -23t23 -7h125q31 0 32 30l119 1379v6q0 10 -5 14.5t-18 4.5h-58q-22 0 -39.5 -14.5t-19.5 -37.5l-73 -1178l-72 1178q-2 22 -19.5 37t-40.5 15h-57q-13 0 -18.5 -3.5t-5.5 -11.5z" />
<glyph unicode="W" horiz-adv-x="1190" d="M226 1419q0 -6 1 -10l118 -1379q1 -30 32 -30h123q33 0 34 30l60 1057l62 -1057q0 -30 32 -30h115v1l1 -1q20 0 30 6t12 24l117 1379v6q0 10 -4.5 14.5t-17.5 4.5h-59q-22 0 -39 -14.5t-20 -37.5l-72 -1189l-76 1189q-1 21 -17 36t-36 15h-56q-19 0 -34.5 -14.5 t-17.5 -36.5l-75 -1184l-72 1184q-2 22 -19 37t-40 15h-58q-13 0 -18.5 -3.5t-5.5 -11.5z" />
<glyph unicode="X" horiz-adv-x="866" d="M227 29q-5 -29 25 -29h53q22 0 42 14.5t22 36.5l64 585l64 -585q2 -22 22 -36.5t42 -14.5h53q30 0 25 29l-108 688l108 688q5 29 -25 29h-53q-22 0 -42 -14.5t-22 -37.5l-64 -583l-64 583q-2 22 -22 37t-42 15h-53q-30 0 -25 -29l108 -688z" />
<glyph unicode="Y" horiz-adv-x="867" d="M227 1413q0 -5 1 -8l137 -937v-437q0 -31 30 -31h76q31 0 31 31v438l137 936q5 29 -25 29h-53q-22 0 -42 -14.5t-22 -37.5l-64 -681l-64 681q-2 22 -22 37t-42 15h-53q-25 0 -25 -21z" />
<glyph unicode="Z" horiz-adv-x="810" d="M241 41q0 -19 14 -30t35 -11h258q22 0 23 28v20q0 71 -59 71h-130l178 1285q1 4 1 10q0 12 -6.5 16t-22.5 4h-260q-22 0 -22 -28v-20q0 -70 57 -71h99l-164 -1264q-1 -4 -1 -10z" />
<glyph unicode="[" horiz-adv-x="759" d="M267 -86q0 -19 20 -20h215q9 0 15 5.5t6 14.5v11q0 26 -14 42t-36 16h-69v1468h69q22 0 36 16t14 41v13q0 9 -6 14t-15 5h-215q-20 0 -20 -19v-1607z" />
<glyph unicode="\" horiz-adv-x="789" d="M230 1407l173 -1356q2 -22 19 -36.5t40 -14.5h60q12 0 17 3.5t5 11.5q0 6 -1 10l-175 1354q-2 19 -14 35q-16 19 -48 20h-55q-23 0 -21 -27z" />
<glyph unicode="]" horiz-adv-x="752" d="M229 -75v-11q0 -19 21 -20h215q20 1 20 20v1607q0 19 -20 19h-215q-20 0 -21 -19v-13q0 -26 14 -41.5t36 -15.5h69v-1468h-69q-22 0 -36 -16t-14 -42z" />
<glyph unicode="^" horiz-adv-x="924" d="M267 482q0 -16 24 -16h59q21 0 37.5 14t21.5 36l53 294l53 -294q4 -22 21.5 -36t38.5 -14h59q23 0 23 15q0 3 -2 10l-98 425q-4 16 -10.5 22.5t-21.5 6.5h-125q-16 0 -22.5 -6.5t-10.5 -22.5l-98 -425z" />
<glyph unicode="_" horiz-adv-x="913" d="M262 -71v-15q0 -15 7 -20.5t19 -5.5h313q23 0 38 16t15 38v11q0 15 -5.5 20t-19.5 5h-315q-23 0 -37.5 -13.5t-14.5 -35.5z" />
<glyph unicode="`" horiz-adv-x="696" d="M268 1530q0 -10 5 -24l61 -177q11 -28 22.5 -40.5t34.5 -12.5h19q12 0 17 7t3 18l-44 236q-2 11 -11 18t-22 7h-37q-48 0 -48 -32z" />
<glyph unicode="a" horiz-adv-x="854" d="M226 19q0 -11 5 -15t18 -4h58q22 0 39.5 14.5t19.5 36.5l9 162h101l10 -162q1 -22 19 -36.5t40 -14.5h59q12 0 17 3.5t5 11.5q0 6 -1 10l-103 1154q-3 30 -33 30h-125q-16 0 -23 -7t-9 -23l-106 -1154v-6zM382 319l44 693l1 5l42 -698h-87z" />
<glyph unicode="b" horiz-adv-x="931" d="M267 26q0 -15 4.5 -20.5t19.5 -5.5h172q103 0 157 58q22 23 33.5 53t11.5 61v302q0 108 -55 144q31 20 43 54.5t12 85.5v283q0 30 -11.5 61t-33.5 54q-53 57 -153 57h-176q-15 0 -19.5 -5.5t-4.5 -20.5v-1161zM404 118v442h66q32 0 47 -30q10 -22 10 -57v-300 q0 -23 -16 -39t-46 -16h-61zM404 673v421h61q30 0 46 -15.5t16 -38.5v-279q0 -34 -10 -57q-15 -31 -47 -31h-66z" />
<glyph unicode="c" horiz-adv-x="931" d="M267 150q0 -36 13.5 -67.5t39.5 -53.5q54 -49 144 -49q45 0 83 12.5t64 36.5q26 22 40 53.5t14 67.5v359q0 20 -25 20h-62q-20 0 -33 -8q-18 -12 -18 -32v-334q0 -21 -14.5 -37.5t-46.5 -16.5q-31 0 -46.5 15t-15.5 39v899q0 23 15.5 38.5t45.5 15.5t46.5 -15.5 t16.5 -38.5v-345q0 -19 16 -29.5t35 -10.5h62q23 0 24 21v369q0 35 -14 66t-40 55q-55 50 -144 50q-45 0 -82 -13t-64 -36t-40.5 -54.5t-13.5 -67.5v-909z" />
<glyph unicode="d" horiz-adv-x="925" d="M265 26q0 -15 4.5 -20.5t19.5 -5.5h176q90 0 143 47q54 48 54 127v862q0 31 -11.5 61t-33.5 55q-25 26 -63.5 41.5t-88.5 15.5h-176q-15 0 -19.5 -5.5t-4.5 -20.5v-1157zM402 118v972h61q30 0 46 -15.5t16 -38.5v-863q0 -22 -15 -38.5t-42 -16.5h-66z" />
<glyph unicode="e" horiz-adv-x="817" d="M265 26q0 -16 5 -21t24 -5h265q24 0 24 28v20q0 70 -62 70h-119v419h77q38 0 61 15t23 54v21q0 28 -24 28h-137v435h119q30 0 46 17.5t16 53.5v20q0 28 -24 28h-245q-25 0 -33.5 -1.5t-12 -6t-3.5 -18.5v-1157z" />
<glyph unicode="f" horiz-adv-x="807" d="M265 26q0 -15 4.5 -20.5t19.5 -5.5h59q23 0 38.5 16t15.5 37v484h98q30 0 46.5 17.5t16.5 51.5v21q0 28 -24 28h-137v435h119q30 0 46 17.5t16 53.5v22q0 26 -24 26h-265q-18 0 -23.5 -5.5t-5.5 -20.5v-1157z" />
<glyph unicode="g" horiz-adv-x="931" d="M263 150q0 -36 14 -67.5t40 -53.5q54 -49 144 -49q45 0 82.5 12.5t64.5 36.5q27 22 40.5 53.5t13.5 67.5v435q0 22 -23 22h-68h-88q-25 0 -24 -27v-32q0 -35 11.5 -52t40.5 -17h14v-324q0 -21 -15 -37.5t-47 -16.5q-31 0 -46.5 15t-15.5 39v899q0 23 16 38.5t46 15.5 t46 -15.5t16 -38.5v-297q0 -19 18 -31q14 -10 33 -9h62q25 0 24 21v320q0 36 -13.5 67t-39.5 55q-27 23 -63.5 36t-80.5 14q-89 0 -147 -49q-27 -23 -41 -55t-14 -68v-908z" />
<glyph unicode="h" horiz-adv-x="922" d="M265 26q0 -15 4.5 -20.5t19.5 -5.5h59q22 0 38 15t16 37v496h119v-497q0 -22 16 -36.5t38 -14.5h59q15 0 19.5 5.5t4.5 20.5v1157q0 15 -4.5 20.5t-19.5 5.5h-59q-22 0 -38 -15t-16 -38v-494h-119v491q0 25 -15 40.5t-39 15.5h-59q-15 0 -19.5 -5.5t-4.5 -20.5v-1157z " />
<glyph unicode="i" horiz-adv-x="666" d="M265 31q0 -31 29 -31h77q31 0 31 31v1153q0 15 -4 20t-20 5h-59q-22 0 -38 -15.5t-16 -38.5v-1124z" />
<glyph unicode="j" horiz-adv-x="925" d="M265 150q0 -30 12 -59.5t36 -54.5q53 -56 149 -56h3q92 0 147 53q25 23 37.5 54t12.5 64v1032q0 15 -4.5 20.5t-19.5 5.5h-59q-22 0 -38 -15t-16 -38v-1000q0 -20 -15.5 -37.5t-49.5 -17.5q-29 1 -43.5 16t-14.5 38v473q0 20 -18 32q-13 9 -33 9h-63q-23 0 -23 -22v-497z " />
<glyph unicode="k" horiz-adv-x="931" d="M265 26q0 -15 4.5 -20.5t19.5 -5.5h59q22 0 38 15t16 37v502h48l94 -511q3 -18 22 -30.5t41 -12.5h64q12 0 16 2.5t4 8.5t-1 10l-111 591l111 575q1 4 1 11q0 5 -4 8t-16 3h-64q-22 0 -41 -12.5t-22 -30.5l-94 -498h-48v491q0 20 -15 35t-39 15h-59q-15 0 -19.5 -5.5 t-4.5 -20.5v-1157z" />
<glyph unicode="l" horiz-adv-x="801" d="M265 27q0 -16 4.5 -21.5t19.5 -5.5h267q23 0 23 28v20q0 70 -62 70h-115v1035q0 25 -15 40.5t-39 15.5h-59q-15 0 -19.5 -5.5t-4.5 -20.5v-1156z" />
<glyph unicode="m" horiz-adv-x="1110" d="M265 26q0 -14 5 -20t20 -6h57q23 0 39 15t16 39l-21 683l5 142l93 -849q3 -30 33 -30h81q32 0 33 30l93 849l6 -142l-21 -683q0 -25 16 -39.5t39 -14.5h57q25 0 25 26v1158q0 15 -4.5 20t-19.5 5h-63q-51 0 -72 -7q-35 -11 -40 -45l-89 -916l-90 916q-2 22 -19 37t-40 15 h-115q-16 0 -20 -5t-4 -20v-1158z" />
<glyph unicode="n" horiz-adv-x="922" d="M265 26q0 -14 5 -20t20 -6h57q25 0 41 15.5t14 38.5l-24 726l137 -699q9 -38 19 -55q16 -26 42 -26h57q15 0 20 6t5 20v1158q0 14 -4.5 19.5t-19.5 5.5h-60q-22 0 -39 -15.5t-14 -38.5l24 -723l-135 690q-18 86 -61 87h-60q-15 0 -19.5 -5.5t-4.5 -19.5v-1158z" />
<glyph unicode="o" horiz-adv-x="931" d="M267 153q0 -32 12 -63t37 -55q54 -54 150 -54q95 0 151 55q48 48 48 117v905q0 34 -12.5 65t-37.5 55q-55 52 -150 52q-93 0 -147 -52q-26 -23 -38.5 -55t-12.5 -65v-905zM404 156v898q0 23 15.5 38.5t45.5 15.5q31 0 46.5 -15.5t15.5 -38.5v-898q0 -23 -15 -39t-45 -16 q-31 0 -47 15.5t-16 39.5z" />
<glyph unicode="p" horiz-adv-x="900" d="M265 26q0 -15 4.5 -20.5t19.5 -5.5h59q22 0 38 15t16 37v365h59q45 0 82.5 13t64.5 36q27 22 40.5 53.5t13.5 68.5v449q0 36 -13.5 67.5t-39.5 54.5q-57 49 -144 50h-176q-15 0 -19.5 -5.5t-4.5 -20.5v-1157zM402 535v555h61q30 0 46 -15.5t16 -38.5v-447 q0 -21 -15 -37.5t-42 -16.5h-66z" />
<glyph unicode="q" d="M267 153q0 -52 30 -95q33 -47 92 -65v-32q0 -29 15.5 -45.5t46.5 -16.5h60q10 0 15.5 6t5.5 15v69q66 17 101 65q32 45 32 99v905q0 34 -12.5 65t-37.5 55q-55 52 -150 52q-93 0 -147 -52q-26 -23 -38.5 -55t-12.5 -65v-905zM404 156v898q0 23 15.5 38.5t45.5 15.5 q31 0 46.5 -15.5t15.5 -38.5v-898q0 -15 -6 -27q-20 23 -62 24q-33 0 -52 -18q-3 10 -3 21z" />
<glyph unicode="r" horiz-adv-x="925" d="M265 26q0 -15 4.5 -20.5t19.5 -5.5h59q22 0 38 15t16 37v446h61q31 0 46.5 -15t15.5 -38v-393q0 -22 15.5 -37t37.5 -15h59q15 0 20 5.5t5 20.5v419q0 79 -67 109q67 41 67 137v347q0 34 -11.5 65t-36.5 54q-54 52 -149 53h-176q-15 0 -19.5 -5.5t-4.5 -20.5v-1158z M402 617v474h61q30 0 46 -15.5t16 -38.5v-344q0 -31 -12 -51q-15 -26 -45 -25h-66z" />
<glyph unicode="s" d="M263 1058q0 -116 20 -201q18 -78 45.5 -144.5t66.5 -130.5q26 -43 63 -117q32 -69 49.5 -142t17.5 -168q0 -23 -15.5 -38.5t-46.5 -15.5q-30 0 -45.5 15t-15.5 39v234q0 19 -18 31q-13 9 -33 9h-63q-23 0 -23 -20v-259q0 -36 13 -67.5t39 -53.5q54 -49 146 -49 q45 0 82.5 12.5t63.5 36.5q26 22 39.5 53.5t13.5 67.5q0 123 -19 211q-32 147 -111 278q-36 61 -63 115q-33 66 -50.5 137t-17.5 163q0 22 16 38t46 16t46 -15.5t16 -38.5v-243q0 -19 16 -30t35 -11h62q25 0 24 20v268q0 36 -13.5 67.5t-40.5 55.5q-27 22 -64.5 35t-82.5 13 q-44 0 -81.5 -13t-62.5 -35q-26 -23 -40 -55t-14 -68z" />
<glyph unicode="t" horiz-adv-x="850" d="M228 1161q0 -70 63 -71h68v-1060q0 -16 6.5 -23t22.5 -7h79q30 0 30 30v1060h63q30 0 46.5 17.5t16.5 53.5v20q0 28 -25 28h-345q-25 0 -25 -28v-20z" />
<glyph unicode="u" d="M265 150q0 -69 52 -118q55 -52 148 -52q92 0 148 54q25 23 37 53.5t12 62.5v1034q0 15 -5 20.5t-20 5.5h-59q-22 0 -37.5 -15t-15.5 -38v-1002q0 -23 -15.5 -38.5t-46.5 -15.5q-32 0 -46.5 16t-14.5 38v1002q0 22 -16 37.5t-38 15.5h-59q-15 0 -19.5 -5.5t-4.5 -20.5 v-1034z" />
<glyph unicode="v" horiz-adv-x="853" d="M226 1184l106 -1154q1 -30 32 -30h125q30 0 33 30l103 1154q1 4 1 10q0 9 -5.5 12t-16.5 3h-59q-22 0 -40 -14.5t-20 -37.5l-59 -948l-59 948q-2 22 -19.5 37t-40.5 15h-58q-15 0 -19.5 -5.5t-3.5 -19.5z" />
<glyph unicode="w" horiz-adv-x="1152" d="M227 1194q0 -6 1 -10l105 -1154q2 -16 9.5 -23t23.5 -7h125q31 0 32 30l53 886l54 -886q0 -13 7 -19q11 -11 37 -11h25h88q16 0 23.5 7t9.5 23l105 1154q1 4 1 10q0 9 -5.5 12t-18.5 3h-57q-22 0 -40.5 -14.5t-19.5 -37.5l-60 -948l-62 948q-2 22 -19.5 37t-39.5 15h-56 q-22 0 -39 -14.5t-18 -37.5l-63 -948l-60 948q-1 22 -18.5 37t-40.5 15h-58q-13 0 -18.5 -3.5t-5.5 -11.5z" />
<glyph unicode="x" horiz-adv-x="871" d="M234 18q0 -18 25 -18h54q22 0 41.5 12.5t22.5 30.5l59 492l60 -492q2 -18 22 -30.5t42 -12.5h53q28 0 25 26l-104 579l104 578q3 26 -25 26h-53q-22 0 -42 -12.5t-22 -30.5l-60 -492l-59 492q-2 18 -22 30.5t-42 12.5h-54q-30 0 -24 -26l102 -578l-102 -579z" />
<glyph unicode="y" horiz-adv-x="844" d="M228 1184l126 -785v-373q0 -26 31 -26h76q31 0 31 26v373l127 785l1 7q0 17 -26 18h-53q-23 0 -42.5 -12.5t-20.5 -30.5l-55 -547l-54 547q-2 18 -22 30.5t-42 12.5h-53q-16 0 -21 -6t-3 -19z" />
<glyph unicode="z" horiz-adv-x="809" d="M241 41q0 -19 14 -30t35 -11h258q22 0 23 28v20q0 71 -59 71h-127l175 1060q1 4 1 10q0 11 -6.5 15.5t-21.5 4.5h-261q-22 0 -22 -28v-20q0 -70 57 -71h97l-162 -1039q-1 -4 -1 -10z" />
<glyph unicode="{" horiz-adv-x="824" d="M253 679q0 -22 30 -22q29 0 47 -17.5t18 -50.5q0 -25 -3.5 -68t-4.5 -61l-2 -26q-11 -113 -11 -140q0 -199 32 -289q27 -81 87 -103q23 -10 49.5 -11.5t75.5 -1.5q34 0 34 18v20q0 19 -12 21q-18 5 -31 5q-18 -1 -31.5 4t-23.5 20q-13 16 -21 52q-20 76 -21 264 q0 38 10 142l3 43q6 83 6 104q0 109 -102 135q102 25 102 134q0 22 -6 108l-3 40q-10 103 -10 141q1 190 21 266q7 34 21 52q11 14 24 19t31 5h5q9 0 26 4q12 1 12 20v20q0 18 -34 19q-49 0 -75.5 -2t-49.5 -11q-60 -22 -87 -103q-32 -91 -32 -290q0 -27 11 -138l2 -29 q7 -84 8 -127q0 -33 -18.5 -50.5t-46.5 -17.5q-30 0 -30 -23v-75z" />
<glyph unicode="|" horiz-adv-x="724" d="M266 -84q0 -13 5 -19.5t20 -6.5h59q23 0 38 14.5t15 36.5v1580q0 14 -4.5 19.5t-19.5 5.5h-59q-22 0 -38 -15.5t-16 -38.5v-1576z" />
<glyph unicode="}" horiz-adv-x="824" d="M219 -73v-20q0 -18 34 -18q50 0 76 1.5t50 11.5q29 11 50 35.5t36 67.5q31 91 31 289q0 17 -6 94l-4 46q-11 111 -10 155q0 33 17.5 50.5t46.5 17.5q30 0 30 22v75q0 22 -30 23q-29 0 -46.5 17.5t-17.5 50.5q0 43 10 156l4 43q6 77 6 95q0 197 -31 290q-15 43 -36.5 67.5 t-49.5 35.5q-23 10 -49.5 11.5t-76.5 1.5q-34 0 -34 -19v-20q0 -19 11 -20q18 -5 32 -4q17 0 30.5 -5t24.5 -19q13 -17 21 -52q19 -79 20 -266q0 -21 -3 -59l-6 -82l-7 -83q-3 -39 -3 -65q0 -111 102 -134q-101 -26 -102 -135q0 -23 3 -64l7 -83l6 -82q3 -38 3 -60 q-1 -186 -20 -264q-10 -37 -21 -52t-24.5 -20t-30.5 -4q-14 0 -32 -5q-12 -1 -11 -21z" />
<glyph unicode="~" horiz-adv-x="913" d="M260 613q0 -22 12 -22q7 0 22 6t33 14q22 9 46 9q17 0 32 -7t45 -25q23 -15 45.5 -23.5t49.5 -8.5q43 0 74 24q33 26 33 70v29q0 21 -12 21q-4 0 -19 -7q-26 -11 -42 -16.5t-36 -5.5q-17 0 -31 7t-42 25q-25 15 -46 23.5t-46 8.5q-48 0 -81 -25q-36 -26 -37 -65v-32z" />
<glyph unicode="&#xa1;" horiz-adv-x="673" d="M245 1155q0 33 21.5 52.5t63.5 19.5q43 0 64 -19t21 -53t-21.5 -52.5t-63.5 -18.5t-63.5 19t-21.5 52zM269 -198v1143q0 11 6 18t17 7h33q30 0 49.5 -16.5t21.5 -44.5l27 -1071q2 -28 -17 -45t-51 -17h-63q-12 0 -17.5 7.5t-5.5 18.5z" />
<glyph unicode="&#xa2;" horiz-adv-x="931" d="M267 150q0 -64 40.5 -109t109.5 -57v-154q0 -12 5.5 -18.5t20.5 -6.5h18q22 0 37 14.5t15 36.5v128q70 13 111 57.5t41 108.5v359q0 20 -25 20h-62q-20 0 -33 -8q-18 -12 -18 -32v-334q0 -21 -14.5 -37.5t-46.5 -16.5q-31 0 -46.5 15t-15.5 39v899q0 23 15.5 38.5 t45.5 15.5t46.5 -15.5t16.5 -38.5v-345q0 -19 16 -29.5t35 -10.5h62q23 0 24 21v369q0 62 -41.5 108t-110.5 59v155q0 14 -4 19.5t-19 5.5h-19q-22 0 -38 -15.5t-16 -37.5v-127q-69 -14 -109.5 -59.5t-40.5 -107.5v-909z" />
<glyph unicode="&#xa3;" horiz-adv-x="1030" d="M267 19q0 -19 20 -19h454q21 0 21 19v45q0 26 -14 42t-37 16h-301q32 61 52 148q30 127 30 299v99h96q22 0 36.5 16t14.5 41v21q0 9 -6.5 14t-14.5 5h-126v513q0 20 15.5 37t49.5 17q29 -1 43 -16t14 -37v-270q0 -19 19 -31q14 -10 33 -9h63q23 0 23 21v293 q0 30 -12.5 60.5t-35.5 53.5q-27 27 -65 42t-89 15q-92 0 -146 -52q-25 -23 -37.5 -54.5t-12.5 -65.5v-517h-63q-20 0 -20 -19v-21q0 -26 14 -41.5t36 -15.5h33v-102q0 -195 -29 -324q-16 -74 -48 -140q-11 -14 -10 -38v-45z" />
<glyph unicode="&#xa4;" horiz-adv-x="940" d="M268 16q0 -16 22 -16h28q21 0 37.5 14.5t22.5 36.5l26 112q27 -12 66 -12q38 0 65 12l28 -112q5 -22 22 -36.5t38 -14.5h28q28 0 21 25l-51 200q27 34 26 76v814q0 46 -28 82l53 210q1 3 1 10q0 17 -20 17h-26q-31 0 -45 -20q-9 -11 -17 -35l-31 -125q-26 12 -60 12 q-43 0 -68 -13l-31 126q-9 25 -16 35q-16 19 -45 20h-26q-20 0 -20 -17q0 -6 1 -10l54 -216q-27 -34 -26 -76v-814q0 -42 23 -73l-51 -203q-1 -3 -1 -9zM415 305v805q0 23 13.5 37.5t42.5 14.5t43.5 -14.5t14.5 -36.5v-806q0 -21 -14 -35.5t-42 -14.5q-30 0 -44 13.5 t-14 36.5z" />
<glyph unicode="&#xa5;" horiz-adv-x="947" d="M268 1405l121 -833h-78q-21 0 -21 -19v-21q0 -26 14.5 -41.5t35.5 -15.5h64l1 -7v-65h-94q-21 0 -21 -18v-21q0 -26 14.5 -42t35.5 -16h65v-275q0 -31 30 -31h77q31 0 31 31v275h65q22 0 36 16t14 42v21q0 18 -20 18h-95v72h65q22 0 36 16t14 41v21q0 19 -20 19h-80 l121 833q5 29 -24 29h-53q-22 0 -42 -14.5t-22 -37.5l-64 -681l-64 681q-2 22 -22 37t-42 15h-54q-30 0 -24 -29z" />
<glyph unicode="&#xa6;" horiz-adv-x="672" d="M267 -59q0 -21 16 -36t37 -15h59q16 0 20.5 6t4.5 23v741q0 14 -4 19t-19 5h-60q-22 0 -38 -15t-16 -38v-690zM268 782q0 -17 4.5 -23t20.5 -6h59q21 0 37 15t16 36v690q0 22 -16 37.5t-38 15.5h-60q-15 0 -19 -5t-4 -19v-741z" />
<glyph unicode="&#xa7;" horiz-adv-x="931" d="M267 820q0 -96 19 -159q33 -110 111 -195q34 -37 63 -79q32 -47 49.5 -102t17.5 -130q0 -23 -15.5 -38.5t-45.5 -15.5t-46 15.5t-16 38.5v126q0 19 -16 29.5t-35 10.5h-62q-23 0 -23 -21v-150q0 -36 13 -67.5t39 -53.5q54 -49 146 -49q91 0 145 49q26 22 40 53.5t14 67.5 q0 112 -26 195q-23 68 -63 123q43 21 66 59t23 86q0 140 -41 235q-17 39 -38.5 70t-51.5 67q-37 44 -55 66t-34 52q-41 74 -41 176q0 22 16 38t46 16t45.5 -15.5t15.5 -38.5v-122q0 -18 18 -32q13 -10 33 -9h62q25 0 25 21v146q0 36 -14 67t-40 55q-58 49 -146 49h-1 q-90 0 -144 -48q-26 -23 -39.5 -55t-13.5 -68q0 -108 30 -190q20 -61 67 -122q-47 -21 -72 -60.5t-25 -90.5zM404 816q0 17 11 32t31 20q39 -52 57 -102q23 -64 24 -148q0 -16 -8.5 -29.5t-25.5 -19.5q-44 53 -63 100q-26 62 -26 147z" />
<glyph unicode="&#xa8;" horiz-adv-x="780" d="M245 1347q0 -32 15.5 -50.5t45.5 -18.5q31 0 47.5 18.5t16.5 50.5t-16.5 51t-47.5 19q-30 0 -45.5 -19t-15.5 -51zM414 1347q0 -32 16 -50.5t46 -18.5q31 0 47 18.5t16 50.5t-16 51t-47 19q-30 0 -46 -19t-16 -51z" />
<glyph unicode="&#xa9;" horiz-adv-x="1369" d="M282 166q0 -89 28.5 -159t83.5 -119q53 -48 127 -73t166 -25q90 0 163.5 25t126.5 73q53 49 82 119.5t29 158.5v876q0 86 -27.5 156.5t-80.5 119.5q-52 49 -126.5 76t-166.5 27t-167 -26t-129 -76q-53 -49 -81 -119.5t-28 -157.5v-876zM366 181v853q0 144 86 224 q83 78 225 77q156 0 242 -79t86 -222v-853q0 -149 -79.5 -228.5t-238.5 -79.5q-161 0 -241 79.5t-80 228.5zM485 163q0 -36 14 -67t40 -53q26 -23 63 -36t81 -13t82 12.5t65 36.5q27 22 40.5 53t13.5 67v347q0 20 -23 20h-63q-20 0 -33 -8q-18 -12 -18 -32v-323 q0 -19 -13 -34t-36 -19h-12q-31 0 -47 15.5t-16 37.5v874q0 23 16 38.5t46 15.5t46 -15t16 -39v-333q0 -20 16.5 -30t35.5 -10h62q23 0 23 20v356q0 36 -13.5 67.5t-39.5 55.5q-27 23 -64.5 36t-82.5 13t-82 -13t-63 -36t-40 -54.5t-14 -68.5v-881z" />
<glyph unicode="&#xaa;" horiz-adv-x="880" d="M268 585q0 -45 50 -45h243q50 0 50 45v20q0 15 -20 15h-302q-21 0 -21 -15v-20zM268 676q0 -7 4 -10t16 -3h45q19 0 34.5 13t17.5 32l10 111h89l11 -111q1 -19 17 -32t36 -13h44q14 0 17.5 5t1.5 17l-89 732q-3 25 -29 25h-106q-27 0 -29 -25l-89 -732q-1 -3 -1 -9z M402 899l36 379l4 3l35 -382h-75z" />
<glyph unicode="&#xab;" horiz-adv-x="969" d="M278 592l123 -222q7 -13 22.5 -23.5t33.5 -10.5h52q7 0 12 3.5t3 8.5l-142 244l142 244l1 3q0 4 -5 6.5t-11 2.5h-52q-17 0 -32.5 -10t-23.5 -23zM468 592l123 -222q7 -13 22.5 -23.5t32.5 -10.5h53q7 0 12 3.5t3 8.5l-142 244l142 244l1 3q0 4 -5 6.5t-11 2.5h-53 q-17 0 -32.5 -10t-22.5 -23z" />
<glyph unicode="&#xac;" horiz-adv-x="1013" d="M267 656q0 -15 7.5 -20.5t20.5 -5.5h334q0 -54 11 -85q14 -41 46 -40h35q15 0 20.5 7t5.5 21v187q0 18 -5.5 23.5t-21.5 5.5h-349q-48 0 -72 -11q-32 -14 -32 -46v-36z" />
<glyph unicode="&#xad;" horiz-adv-x="855" d="M262 533q0 -15 7 -20t19 -5h253q25 0 39 17.5t14 44.5v39q0 15 -5.5 19.5t-18.5 4.5h-256q-23 0 -37.5 -15.5t-14.5 -39.5v-45z" />
<glyph unicode="&#xae;" horiz-adv-x="1352" d="M282 166q0 -89 28.5 -159t83.5 -119q53 -48 127 -73t166 -25q90 0 163.5 25t126.5 73q53 49 82 119.5t29 158.5v876q0 86 -27.5 156.5t-80.5 119.5q-52 49 -126.5 76t-166.5 27q-94 0 -169.5 -26t-128.5 -76q-52 -49 -79.5 -119.5t-27.5 -157.5v-876zM366 181v853 q0 145 81.5 223t229.5 78q156 0 242 -79t86 -222v-853q0 -149 -79.5 -228.5t-238.5 -79.5q-161 0 -241 79.5t-80 228.5zM486 51q0 -15 5 -20t20 -5h60q25 0 39 7.5t14 27.5v437h61q30 0 46 -15.5t16 -38.5v-383q0 -20 14 -27.5t40 -7.5h59q15 0 19.5 5t4.5 20v391 q0 79 -66 111q35 21 50.5 61.5t15.5 88.5v335q0 33 -11.5 63.5t-35.5 54.5q-52 54 -150 55q-113 0 -163 -28q-37 -21 -38 -59v-1073zM624 617v467l25 4q17 4 36 4q30 0 46 -15.5t16 -38.5v-334q0 -36 -11 -58q-15 -30 -46 -29h-66z" />
<glyph unicode="&#xaf;" horiz-adv-x="871" d="M286 1330q0 -26 14 -41.5t36 -15.5h187q22 0 36 16t14 41v20q0 9 -6 14.5t-14 5.5h-247q-20 -1 -20 -20v-20z" />
<glyph unicode="&#xb0;" horiz-adv-x="742" d="M242 1303q0 -66 34.5 -104t92.5 -38q61 0 95.5 37.5t34.5 104.5q0 68 -34.5 105t-95.5 37q-59 0 -93 -37.5t-34 -104.5zM324 1305q4 57 45 57q20 0 32.5 -14t13.5 -43q0 -30 -13 -44.5t-33 -14.5t-32.5 14.5t-12.5 44.5z" />
<glyph unicode="&#xb1;" horiz-adv-x="924" d="M258 747q0 -19 9 -23.5t28 -4.5h107v-37q0 -47 15 -76q9 -16 20 -24t29 -8h32q15 0 20 4.5t5 18.5v122h37q47 0 77 15.5t30 47.5v30q0 18 -7.5 22t-29.5 4h-107v39q0 46 -12 73q-14 33 -46 33h-34q-19 0 -24 -9.5t-5 -28.5v-107h-37q-48 0 -74 -10q-33 -14 -33 -46v-35z M267 426q0 -15 7 -20.5t18 -5.5h304q30 0 46 19t16 44v33q0 15 -5.5 19t-18.5 4h-307q-29 0 -44.5 -16t-15.5 -40v-37z" />
<glyph unicode="&#xb2;" horiz-adv-x="874" d="M259 711q0 -13 8 -21.5t23 -8.5h308q22 0 22 23v17q0 60 -56 60h-144q81 133 121 214q69 139 69 198v112q0 65 -39 104q-46 46 -133 46q-86 0 -134 -46q-21 -20 -31.5 -47.5t-10.5 -56.5v-152q0 -12 4.5 -16t17.5 -4h49q19 0 32.5 12.5t13.5 32.5v122q0 23 13.5 37 t43.5 14q29 0 43.5 -14t14.5 -36v-102q0 -27 -17 -67q-34 -82 -100 -194q-60 -101 -100 -179q-18 -34 -18 -48z" />
<glyph unicode="&#xb3;" horiz-adv-x="874" d="M265 806q0 -60 37 -100q45 -48 133 -48q44 0 78 13t57 35q20 20 30 46.5t10 53.5v149q0 35 -14.5 59.5t-46.5 39.5q33 15 47 39t14 58v154q0 65 -39 104q-46 46 -132 46q-87 0 -133 -46q-20 -20 -30.5 -47.5t-10.5 -56.5v-105q0 -11 3.5 -15t16.5 -4h49q19 0 33 12.5 t14 31.5v76q0 50 56 50q30 0 44 -13.5t14 -36.5v-151q0 -20 -14 -34.5t-43 -14.5h-50q-13 0 -16.5 -3.5t-3.5 -15.5v-29q0 -18 13 -31t32 -13h24q30 0 44 -13.5t14 -34.5v-151q0 -20 -14 -34.5t-43 -14.5t-43 13.5t-14 35.5v58q0 20 -14 33t-33 13h-49q-13 0 -16.5 -4 t-3.5 -17v-87z" />
<glyph unicode="&#xb4;" horiz-adv-x="696" d="M263 1295q0 -19 22 -19h18q23 0 35 12.5t23 40.5l59 177q5 14 6 24q0 32 -47 32h-37q-13 0 -22.5 -7t-11.5 -18l-43 -236z" />
<glyph unicode="&#xb6;" horiz-adv-x="1132" d="M265 755q0 -100 44 -153q52 -64 156 -64h60v-596q0 -22 16 -37.5t37 -15.5h59q15 0 20 6t5 20v1493q0 13 -3 17q-5 10 -29 10q-7 -1 -27 -1h-142q-111 0 -160 -86q-36 -64 -36 -180v-413zM727 -85q0 -14 5 -20t20 -6h59q22 0 38.5 15.5t16.5 37.5v1439q0 23 -16.5 38 t-38.5 15h-59q-15 0 -20 -5.5t-5 -20.5v-1493z" />
<glyph unicode="&#xb7;" horiz-adv-x="660" d="M245 650q0 -33 21.5 -52.5t63.5 -19.5q43 0 64 18.5t21 53.5q0 34 -21.5 52.5t-63.5 18.5t-63.5 -19t-21.5 -52z" />
<glyph unicode="&#xb8;" horiz-adv-x="770" d="M311 -223l2 -39q-1 -15 43 -15q64 0 97 20q39 25 40 80q0 29 -7.5 50t-22.5 45q-3 4 -12.5 19.5t-14.5 31t-5 33.5q0 11 -15 11h-49q-12 0 -17 -3t-5 -12q0 -34 8 -63q11 -31 37 -82q7 -14 8 -29q0 -10 -7 -14q-12 -9 -32 -8h-13q-14 0 -24.5 -6t-10.5 -19z" />
<glyph unicode="&#xb9;" horiz-adv-x="820" d="M233 1377l2 -13l5 -18q13 -44 44 -44q9 0 17 4q4 1 7 2t7 2l15 3v-536h-38q-29 0 -43 -13t-14 -44v-17q0 -14 4.5 -19t16.5 -5h263q20 0 21 24v17q0 32 -13.5 44.5t-44.5 12.5h-37v626q0 31 -31 31h-18q-16 0 -43 -10l-106 -32q-14 -4 -14 -15z" />
<glyph unicode="&#xba;" horiz-adv-x="881" d="M265 803q0 -28 9.5 -54t28.5 -47q45 -48 134 -48q88 0 136 48q21 21 31 47t10 54v500q0 64 -40 105q-47 47 -133 47t-135 -46q-21 -20 -31 -48t-10 -58v-500zM286 564q0 -45 51 -45h204q50 0 50 45v21q0 9 -5.5 11.5t-14.5 2.5h-264q-10 0 -15.5 -3t-5.5 -11v-21z M382 807v492q0 23 14 37t43 14t43.5 -14t14.5 -36v-493q0 -21 -14 -35.5t-42 -14.5q-30 0 -44.5 14t-14.5 36z" />
<glyph unicode="&#xbb;" horiz-adv-x="969" d="M283 345q0 -4 4.5 -6.5t11.5 -2.5h52q17 0 32.5 10t22.5 23l123 223l-123 222q-7 13 -22.5 23.5t-32.5 10.5h-52q-7 0 -12 -3.5t-3 -8.5l142 -244l-142 -244zM473 345q0 -4 4.5 -6.5t11.5 -2.5h52q17 0 32.5 10t22.5 23l123 223l-123 222q-7 13 -22.5 23.5t-32.5 10.5 h-52q-7 0 -12.5 -3.5t-2.5 -8.5l141 -244l-141 -244z" />
<glyph unicode="&#xbc;" horiz-adv-x="1344" d="M265 1377l2 -13l5 -18q13 -44 44 -44q9 0 17 4q4 1 7 2t7 2l15 3v-536h-38q-29 0 -43 -13t-14 -44v-17q0 -14 4.5 -19t16.5 -5h263q20 0 21 24v17q0 32 -13.5 44.5t-44.5 12.5h-37v626q0 31 -31 31h-18q-16 0 -43 -10l-106 -32q-14 -4 -14 -15zM461 15q0 -9 5 -12t18 -3 h45q21 0 37.5 14.5t22.5 36.5l294 1356q1 3 1 8q0 18 -20 19h-44q-30 0 -45 -20q-9 -10 -17 -35l-296 -1354q-1 -4 -1 -10zM705 161q0 -15 21 -15h233v-75q0 -27 10 -48q11 -23 37 -23h47q14 0 18 5.5t4 20.5v441q0 12 -3.5 16t-16.5 4h-34q-62 0 -62 -70v-171h-122l101 499 v3q0 19 -17 19h-47q-28 0 -43 -26q-6 -12 -9.5 -26l-4.5 -18l-111 -531z" />
<glyph unicode="&#xbd;" horiz-adv-x="1384" d="M265 1377l2 -13l5 -18q13 -44 44 -44q9 0 17 4q4 1 7 2t7 2l15 3v-536h-38q-29 0 -43 -13t-14 -44v-17q0 -14 4.5 -19t16.5 -5h263q20 0 21 24v17q0 32 -13.5 44.5t-44.5 12.5h-37v626q0 31 -31 31h-18q-16 0 -43 -10l-106 -32q-14 -4 -14 -15zM461 15q0 -9 5 -12t18 -3 h45q21 0 37.5 14.5t22.5 36.5l294 1356q1 3 1 8q0 18 -20 19h-44q-30 0 -45 -20q-9 -10 -17 -35l-296 -1354q-1 -4 -1 -10zM762 32q0 -13 8 -22t23 -9h308q21 1 21 24v17q0 60 -55 59h-144q81 133 120 215q69 139 70 197v112q0 65 -40 105q-46 46 -132 45q-86 0 -135 -45 q-21 -20 -31 -47.5t-10 -57.5v-151q0 -12 4 -16.5t17 -4.5h49q19 0 32.5 13t13.5 32v123q0 23 14 37t44 14q29 0 43 -14.5t14 -35.5v-103q0 -27 -17 -67q-34 -82 -100 -194q-60 -101 -99 -178q-18 -34 -18 -48z" />
<glyph unicode="&#xbe;" horiz-adv-x="1613" d="M265 806q0 -60 37 -100q45 -48 133 -48q44 0 78 13t57 35q20 20 30 46.5t10 53.5v149q0 35 -14.5 59.5t-46.5 39.5q33 15 47 39t14 58v154q0 65 -39 104q-46 46 -132 46q-87 0 -133 -46q-20 -20 -30.5 -47.5t-10.5 -56.5v-105q0 -11 3.5 -15t16.5 -4h49q19 0 33 12.5 t14 31.5v76q0 50 56 50q30 0 44 -13.5t14 -36.5v-151q0 -20 -14 -34.5t-43 -14.5h-50q-13 0 -16.5 -3.5t-3.5 -15.5v-29q0 -18 13 -31t32 -13h24q30 0 44 -13.5t14 -34.5v-151q0 -20 -14 -34.5t-43 -14.5t-43 13.5t-14 35.5v58q0 20 -14 33t-33 13h-49q-13 0 -16.5 -4 t-3.5 -17v-87zM492 15q0 -9 5 -12t18 -3h45q21 0 37.5 14.5t22.5 36.5l294 1356q1 3 1 8q0 18 -20 19h-44q-30 0 -45 -20q-9 -10 -17 -35l-296 -1354q-1 -4 -1 -10zM736 161q0 -15 21 -15h233v-75q0 -27 9 -48q11 -23 38 -23h47q14 0 18 5.5t4 20.5v441q0 12 -3.5 16 t-16.5 4h-34q-62 0 -62 -70v-171h-122l101 499v3q0 19 -18 19h-46q-28 0 -43 -26q-6 -12 -9.5 -26l-4.5 -18l-111 -531z" />
<glyph unicode="&#xbf;" horiz-adv-x="933" d="M269 36q-2 -91 14 -163q16 -53 63 -84.5t118 -31.5q112 0 161 83q39 66 40 176v208q0 21 -25 21h-62q-19 0 -35 -10.5t-16 -29.5v-272q0 -23 -16 -39t-46 -16t-46 16t-16 39q0 107 11 180q18 132 61 270q19 67 34 133q36 173 35 374v54q0 26 -25 26h-34q-36 -1 -57 -69 q-14 -47 -16 -131q-2 -79 -13 -136q-10 -52 -23.5 -98.5t-35.5 -105.5q-17 -46 -32 -103q-34 -123 -39 -291zM398 1155q0 -34 21.5 -52.5t63.5 -18.5t63 19t21 52t-21 52.5t-63 19.5q-43 0 -64 -19t-21 -53z" />
<glyph unicode="&#xc0;" horiz-adv-x="887" d="M230 18q0 -10 5 -14t18 -4h65q22 0 36.5 14.5t15.5 36.5l13 194h119l13 -194q1 -22 16 -36.5t38 -14.5h65q15 0 18.5 5t2.5 20l-117 1379q-3 18 -12 24t-29 6h-108q-20 0 -29.5 -6t-11.5 -24l-118 -1379v-7zM301 1750q0 -10 5 -23l61 -177q11 -28 22.5 -40.5t35.5 -12.5 h18q12 0 17 6.5t3 18.5l-44 236q-2 11 -11 17.5t-22 6.5h-37q-48 0 -48 -32zM388 359l55 873l54 -873h-109z" />
<glyph unicode="&#xc1;" horiz-adv-x="887" d="M230 18q0 -10 5 -14t18 -4h65q22 0 36.5 14.5t15.5 36.5l13 194h119l13 -194q1 -22 16 -36.5t38 -14.5h65q15 0 18.5 5t2.5 20l-117 1379q-3 18 -12 24t-29 6h-108q-20 0 -29.5 -6t-11.5 -24l-118 -1379v-7zM388 359l55 873l54 -873h-109zM397 1516q0 -19 21 -19h18 q23 0 35 12.5t23 40.5l60 177q5 14 5 23q0 32 -47 32h-36q-13 0 -22.5 -6.5t-11.5 -17.5l-44 -236z" />
<glyph unicode="&#xc2;" horiz-adv-x="887" d="M230 18q0 -10 5 -14t18 -4h65q22 0 36.5 14.5t15.5 36.5l13 194h119l13 -194q1 -22 16 -36.5t38 -14.5h65q15 0 18.5 5t2.5 20l-117 1379q-3 18 -12 24t-29 6h-108q-20 0 -29.5 -6t-11.5 -24l-118 -1379v-7zM298 1506q0 -4 4.5 -7.5t10.5 -3.5h50q34 0 39 36l30 187 l30 -187q2 -16 12.5 -26t26.5 -10h52q6 0 10 4t3 10l-73 261q-1 5 -6.5 9t-10.5 4h-88q-13 0 -17 -13l-72 -261zM388 359l55 873l54 -873h-109z" />
<glyph unicode="&#xc3;" horiz-adv-x="887" d="M230 18q0 -10 5 -14t18 -4h65q22 0 36.5 14.5t15.5 36.5l13 194h119l13 -194q1 -22 16 -36.5t38 -14.5h65q15 0 18.5 5t2.5 20l-117 1379q-3 18 -12 24t-29 6h-108q-20 0 -29.5 -6t-11.5 -24l-118 -1379v-7zM275 1566q0 -39 32 -58q29 -18 74 -18q29 0 61 18q16 9 29 13 t28 4q23 1 42 -9q1 -1 9 -6t22 -5q12 0 18.5 5.5t6.5 16.5v21q0 39 -33 61q-28 16 -73 16q-19 0 -33 -4.5t-31 -13.5t-29.5 -13t-27.5 -4q-14 0 -22 3t-17 7q-2 1 -10 5.5t-22 4.5q-23 0 -24 -23v-21zM388 359l55 873l54 -873h-109z" />
<glyph unicode="&#xc4;" horiz-adv-x="887" d="M230 18q0 -10 5 -14t18 -4h65q22 0 36.5 14.5t15.5 36.5l13 194h119l13 -194q1 -22 16 -36.5t38 -14.5h65q15 0 18.5 5t2.5 20l-117 1379q-3 18 -12 24t-29 6h-108q-20 0 -29.5 -6t-11.5 -24l-118 -1379v-7zM287 1568q0 -32 15.5 -50.5t45.5 -18.5q31 0 47.5 18.5 t16.5 50.5t-16.5 50.5t-47.5 18.5q-30 0 -45.5 -18.5t-15.5 -50.5zM388 359l55 873l54 -873h-109zM455 1568q0 -32 16 -50.5t46 -18.5q31 0 47 18.5t16 50.5t-16 50.5t-47 18.5q-30 0 -46 -18.5t-16 -50.5z" />
<glyph unicode="&#xc5;" horiz-adv-x="887" d="M230 18q0 -10 5 -14t18 -4h65q22 0 36.5 14.5t15.5 36.5l13 194h119l13 -194q1 -22 16 -36.5t38 -14.5h65q15 0 18.5 5t2.5 20l-117 1379q-3 18 -12 24t-29 6h-108q-20 0 -29.5 -6t-11.5 -24l-118 -1379v-7zM299 1609q0 -55 34.5 -86t97.5 -31q64 0 99 30.5t35 86.5 q0 55 -35 84.5t-99 29.5q-63 0 -97.5 -29.5t-34.5 -84.5zM386 1609q0 44 45 43q22 0 34 -11.5t12 -31.5q0 -43 -46 -43q-45 0 -45 43zM388 359l55 873l54 -873h-109z" />
<glyph unicode="&#xc6;" horiz-adv-x="1079" d="M231 25q-1 -16 4 -20.5t23 -4.5h64q22 0 37 16.5t18 41.5l25 187h119v-219q0 -15 6 -20.5t26 -5.5h263q25 0 25 28v20q0 70 -87 70h-96v533h98q31 0 47.5 18t16.5 52v21q0 27 -25 27h-137v546h119q31 0 47.5 18t16.5 53v20q0 28 -25 28h-279h-25q-10 0 -20 -3 q-11 -3 -16 -9.5t-6 -17.5zM422 359l99 802v-802h-99z" />
<glyph unicode="&#xc7;" horiz-adv-x="931" d="M271 150v1134q0 36 14 67t40 55q27 23 64.5 36t81.5 13q89 0 144 -50q26 -23 40 -54.5t14 -66.5v-454q0 -21 -24 -21h-62q-19 0 -35 10.5t-16 29.5v430q0 23 -16.5 38.5t-46.5 15.5t-45 -15.5t-15 -38.5v-1124q0 -23 15 -38.5t46 -15.5q32 0 46.5 16t14.5 38v428 q0 20 18 32q13 9 33 9h62q25 0 25 -20v-454q0 -36 -14 -67.5t-40 -53.5q-44 -39 -110 -47q2 -14 7 -25t12 -22t10 -17q15 -23 22.5 -44.5t7.5 -50.5q0 -55 -39 -80q-33 -20 -97 -20q-44 0 -44 15l-1 39q0 13 10 19t24 6h14q20 0 32 8q6 4 6 14q0 15 -7 29q-27 51 -37 82 q-7 25 -9 50q-53 10 -92 44q-26 22 -39.5 53.5t-13.5 67.5z" />
<glyph unicode="&#xc8;" horiz-adv-x="837" d="M267 26q0 -16 5.5 -21t25.5 -5h263q25 0 25 28v20q0 35 -16.5 52.5t-46.5 17.5h-119v533h98q30 0 46.5 18t16.5 52v21q0 27 -24 27h-137v546h119q30 0 46.5 18t16.5 53v20q0 28 -25 28h-270q-15 0 -19.5 -5.5t-4.5 -20.5v-1382zM294 1750q0 -10 6 -23l61 -177 q11 -28 22.5 -40.5t34.5 -12.5h18q12 0 17.5 6.5t3.5 18.5l-44 236q-2 11 -11 17.5t-22 6.5h-38q-48 0 -48 -32z" />
<glyph unicode="&#xc9;" horiz-adv-x="837" d="M267 26q0 -16 5.5 -21t25.5 -5h263q25 0 25 28v20q0 35 -16.5 52.5t-46.5 17.5h-119v533h98q30 0 46.5 18t16.5 52v21q0 27 -24 27h-137v546h119q30 0 46.5 18t16.5 53v20q0 28 -25 28h-270q-15 0 -19.5 -5.5t-4.5 -20.5v-1382zM373 1516q0 -19 22 -19h18q23 0 35 12.5 t22 40.5l60 177q5 14 5 23q0 32 -46 32h-37q-13 0 -22.5 -6.5t-11.5 -17.5l-44 -236z" />
<glyph unicode="&#xca;" horiz-adv-x="837" d="M267 26q0 -16 5.5 -21t25.5 -5h263q25 0 25 28v20q0 35 -16.5 52.5t-46.5 17.5h-119v533h98q30 0 46.5 18t16.5 52v21q0 27 -24 27h-137v546h119q30 0 46.5 18t16.5 53v20q0 28 -25 28h-270q-15 0 -19.5 -5.5t-4.5 -20.5v-1382zM284 1506q0 -4 4.5 -7.5t10.5 -3.5h50 q34 0 39 36l30 187l30 -187q2 -16 12.5 -26t26.5 -10h52q6 0 10.5 4t3.5 10l-74 261q-1 5 -6.5 9t-10.5 4h-88q-13 0 -17 -13l-72 -261z" />
<glyph unicode="&#xcb;" horiz-adv-x="837" d="M267 26q0 -16 5.5 -21t25.5 -5h263q25 0 25 28v20q0 35 -16.5 52.5t-46.5 17.5h-119v533h98q30 0 46.5 18t16.5 52v21q0 27 -24 27h-137v546h119q30 0 46.5 18t16.5 53v20q0 28 -25 28h-270q-15 0 -19.5 -5.5t-4.5 -20.5v-1382zM272 1568q0 -32 15.5 -50.5t45.5 -18.5 q31 0 47.5 18.5t16.5 50.5t-16.5 50.5t-47.5 18.5q-30 0 -45.5 -18.5t-15.5 -50.5zM441 1568q0 -32 16 -50.5t45 -18.5q31 0 47 18.5t16 50.5t-16 50.5t-47 18.5q-29 0 -45 -18.5t-16 -50.5z" />
<glyph unicode="&#xcc;" horiz-adv-x="670" d="M210 1750q0 -10 5 -23l61 -177q11 -28 22.5 -40.5t35.5 -12.5h18q12 0 17 6.5t3 18.5l-43 236q-3 11 -12 17.5t-22 6.5h-37q-48 0 -48 -32zM267 31q0 -31 30 -31h76q31 0 31 31v1378q0 14 -4.5 19.5t-19.5 5.5h-59q-22 0 -38 -15t-16 -39v-1349z" />
<glyph unicode="&#xcd;" horiz-adv-x="670" d="M267 31q0 -31 30 -31h76q31 0 31 31v1378q0 14 -4.5 19.5t-19.5 5.5h-59q-22 0 -38 -15t-16 -39v-1349zM305 1516q0 -19 21 -19h19q23 0 34.5 12.5t22.5 40.5l60 177q5 14 5 23q0 32 -47 32h-36q-13 0 -22.5 -6.5t-11.5 -17.5l-44 -236z" />
<glyph unicode="&#xce;" horiz-adv-x="670" d="M201 1506q0 -4 4.5 -7.5t9.5 -3.5h51q34 0 39 36l30 187l30 -187q2 -16 12.5 -26t26.5 -10h51q6 0 10.5 4t3.5 10l-73 261q-1 5 -6.5 9t-10.5 4h-88q-13 0 -17 -13l-72 -261zM267 31q0 -31 30 -31h76q31 0 31 31v1378q0 14 -4.5 19.5t-19.5 5.5h-59q-22 0 -38 -15 t-16 -39v-1349z" />
<glyph unicode="&#xcf;" horiz-adv-x="670" d="M189 1568q0 -32 15.5 -50.5t45.5 -18.5q31 0 47.5 18.5t16.5 50.5t-16.5 50.5t-47.5 18.5q-30 0 -45.5 -18.5t-15.5 -50.5zM267 31q0 -31 30 -31h76q31 0 31 31v1378q0 14 -4.5 19.5t-19.5 5.5h-59q-22 0 -38 -15t-16 -39v-1349zM357 1568q0 -32 15.5 -50.5t46.5 -18.5 t47 18.5t16 50.5t-16 50.5t-47 18.5t-46.5 -18.5t-15.5 -50.5z" />
<glyph unicode="&#xd0;" horiz-adv-x="931" d="M189 693q0 -26 14 -41.5t36 -15.5h28v-610q0 -16 5.5 -21t24.5 -5h166q94 0 148 45.5t54 127.5v1089q0 34 -12.5 65.5t-35.5 53.5q-55 52 -150 53h-176q-15 0 -19.5 -5.5t-4.5 -20.5v-661h-58q-20 0 -20 -20v-34zM404 118v518h62q12 0 19.5 9.5t7.5 22.5v59q0 19 -20 20 h-69v568h61q30 0 46 -15.5t16 -38.5v-1088q0 -22 -15 -38.5t-42 -16.5h-66z" />
<glyph unicode="&#xd1;" horiz-adv-x="922" d="M265 26q0 -14 5 -20t20 -6h57q23 0 39.5 15t15.5 39l-19 832l138 -839q4 -21 19 -34t36 -13h57q15 0 20 6t5 20v1383q0 14 -4.5 19.5t-19.5 5.5h-60q-22 0 -38.5 -15t-14.5 -39l19 -832l-139 840q-4 21 -18 33.5t-34 12.5h-60q-15 0 -19.5 -5.5t-4.5 -19.5v-1383z M303 1566q0 -39 32 -58q29 -18 74 -18q29 0 60 18q16 9 29.5 13t28.5 4q23 1 42 -9q1 -1 9 -6t21 -5q12 0 19 5.5t7 16.5v21q0 39 -33 61q-28 16 -74 16q-19 0 -33 -4.5t-31 -13.5t-29 -13t-27 -4q-14 0 -22 3t-18 7q-2 1 -10 5.5t-22 4.5q-23 0 -23 -23v-21z" />
<glyph unicode="&#xd2;" d="M265 153q0 -32 12 -63t37 -55q54 -54 150 -54q94 0 151 55q48 48 48 117v1130q0 33 -12.5 64.5t-37.5 54.5q-26 25 -64 38.5t-85 13.5t-85 -14t-63 -38q-25 -22 -38 -53.5t-13 -65.5v-1130zM332 1750q0 -10 5 -23l61 -177q11 -28 22.5 -40.5t34.5 -12.5h19q12 0 17 6.5 t3 18.5l-44 236q-2 11 -11 17.5t-22 6.5h-37q-48 0 -48 -32zM402 156v1123q0 23 15.5 38.5t46.5 15.5q30 0 46 -15.5t16 -38.5v-1123q0 -23 -15.5 -39t-45.5 -16q-31 0 -47 15.5t-16 39.5z" />
<glyph unicode="&#xd3;" d="M265 153q0 -32 12 -63t37 -55q54 -54 150 -54q94 0 151 55q48 48 48 117v1130q0 33 -12.5 64.5t-37.5 54.5q-26 25 -64 38.5t-85 13.5t-85 -14t-63 -38q-25 -22 -38 -53.5t-13 -65.5v-1130zM402 156v1123q0 23 15.5 38.5t46.5 15.5q30 0 46 -15.5t16 -38.5v-1123 q0 -23 -15.5 -39t-45.5 -16q-31 0 -47 15.5t-16 39.5zM429 1516q0 -19 21 -19h18q23 0 35 12.5t23 40.5l60 177q5 14 5 23q0 32 -47 32h-36q-13 0 -22.5 -6.5t-11.5 -17.5l-44 -236z" />
<glyph unicode="&#xd4;" d="M265 153q0 -32 12 -63t37 -55q54 -54 150 -54q94 0 151 55q48 48 48 117v1130q0 33 -12.5 64.5t-37.5 54.5q-26 25 -64 38.5t-85 13.5t-85 -14t-63 -38q-25 -22 -38 -53.5t-13 -65.5v-1130zM327 1506q0 -4 5 -7.5t10 -3.5h51q34 0 39 36l30 187l30 -187q2 -16 12.5 -26 t26.5 -10h51q6 0 10.5 4t3.5 10l-73 261q-1 5 -6.5 9t-10.5 4h-88q-13 0 -17 -13l-72 -261zM402 156v1123q0 23 15.5 38.5t46.5 15.5q30 0 46 -15.5t16 -38.5v-1123q0 -23 -15.5 -39t-45.5 -16q-31 0 -47 15.5t-16 39.5z" />
<glyph unicode="&#xd5;" d="M265 153q0 -32 12 -63t37 -55q54 -54 150 -54q94 0 151 55q48 48 48 117v1130q0 33 -12.5 64.5t-37.5 54.5q-26 25 -64 38.5t-85 13.5t-85 -14t-63 -38q-25 -22 -38 -53.5t-13 -65.5v-1130zM305 1566q0 -39 32 -58q29 -18 74 -18q29 0 60 18q16 9 29.5 13t28.5 4 q23 1 42 -9q1 -1 9 -6t22 -5q12 0 18.5 5.5t6.5 16.5v21q0 39 -33 61q-28 16 -73 16q-19 0 -33 -4.5t-31 -13.5t-29.5 -13t-27.5 -4q-14 0 -22 3t-17 7q-2 1 -10.5 5.5t-21.5 4.5q-23 0 -24 -23v-21zM402 156v1123q0 23 15.5 38.5t46.5 15.5q30 0 46 -15.5t16 -38.5v-1123 q0 -23 -15.5 -39t-45.5 -16q-31 0 -47 15.5t-16 39.5z" />
<glyph unicode="&#xd6;" d="M265 153q0 -32 12 -63t37 -55q54 -54 150 -54q94 0 151 55q48 48 48 117v1130q0 33 -12.5 64.5t-37.5 54.5q-26 25 -64 38.5t-85 13.5t-85 -14t-63 -38q-25 -22 -38 -53.5t-13 -65.5v-1130zM317 1568q0 -32 15.5 -50.5t45.5 -18.5q31 0 47.5 18.5t16.5 50.5t-16.5 50.5 t-47.5 18.5q-30 0 -45.5 -18.5t-15.5 -50.5zM402 156v1123q0 23 15.5 38.5t46.5 15.5q30 0 46 -15.5t16 -38.5v-1123q0 -23 -15.5 -39t-45.5 -16q-31 0 -47 15.5t-16 39.5zM485 1568q0 -32 15.5 -50.5t46.5 -18.5t47 18.5t16 50.5t-16 50.5t-47 18.5q-30 0 -46 -18.5 t-16 -50.5z" />
<glyph unicode="&#xd7;" horiz-adv-x="899" d="M270 797q3 -9 15 -20l79 -84l-33 -32q-34 -32 -45 -63q-5 -14 -5 -23q0 -18 14 -35l23 -25q10 -11 16 -10q7 0 17 9l94 90l32 -33q28 -33 62 -45q14 -5 23 -5q18 0 35 14l25 23q9 9 8 16q0 9 -16 27l-80 84l35 32q34 30 45 58q5 14 6 24q0 18 -14 33l-25 28q-9 10 -18 9 q-12 0 -28 -16l-82 -80l-32 34q-32 35 -58 47q-14 5 -26 6q-18 0 -32 -14l-28 -25q-13 -12 -7 -24z" />
<glyph unicode="&#xd8;" d="M262 -133q0 -16 23 -16h23q21 0 37.5 14t21.5 37l19 91q37 -12 78 -12q94 0 151 55q48 48 48 117v1130q0 52 -29 95l39 178q1 3 1 9q0 18 -20 18h-21q-30 0 -45 -19q-9 -10 -17 -35l-21 -90q-39 15 -86 15t-85 -14t-63 -38q-25 -22 -38 -53.5t-13 -65.5v-1130 q0 -61 37 -106l-39 -172q-1 -3 -1 -8zM402 156v1123q0 23 15.5 38.5t46.5 15.5q30 0 46 -15.5t16 -38.5v-1123q0 -23 -15.5 -39t-45.5 -16q-31 0 -47 15.5t-16 39.5z" />
<glyph unicode="&#xd9;" d="M265 150q0 -69 52 -118q55 -52 148 -52q92 0 148 54q25 23 37 53.5t12 62.5v1258q0 15 -5 20.5t-20 5.5h-59q-22 0 -37.5 -15t-15.5 -38v-1226q0 -23 -15.5 -38.5t-46.5 -15.5q-32 0 -46.5 16t-14.5 38v1226q0 22 -16 37.5t-38 15.5h-59q-15 0 -19.5 -5.5t-4.5 -20.5 v-1258zM330 1750q0 -10 5 -23l61 -177q11 -28 22.5 -40.5t34.5 -12.5h18q12 0 17.5 6.5t3.5 18.5l-44 236q-2 11 -11 17.5t-22 6.5h-37q-48 0 -48 -32z" />
<glyph unicode="&#xda;" d="M265 150q0 -69 52 -118q55 -52 148 -52q92 0 148 54q25 23 37 53.5t12 62.5v1258q0 15 -5 20.5t-20 5.5h-59q-22 0 -37.5 -15t-15.5 -38v-1226q0 -23 -15.5 -38.5t-46.5 -15.5q-32 0 -46.5 16t-14.5 38v1226q0 22 -16 37.5t-38 15.5h-59q-15 0 -19.5 -5.5t-4.5 -20.5 v-1258zM427 1516q0 -19 21 -19h18q23 0 35 12.5t23 40.5l59 177q5 14 6 23q0 32 -47 32h-36q-13 0 -22.5 -6.5t-12.5 -17.5l-43 -236z" />
<glyph unicode="&#xdb;" d="M265 150q0 -69 52 -118q55 -52 148 -52q92 0 148 54q25 23 37 53.5t12 62.5v1258q0 15 -5 20.5t-20 5.5h-59q-22 0 -37.5 -15t-15.5 -38v-1226q0 -23 -15.5 -38.5t-46.5 -15.5q-32 0 -46.5 16t-14.5 38v1226q0 22 -16 37.5t-38 15.5h-59q-15 0 -19.5 -5.5t-4.5 -20.5 v-1258zM327 1506q0 -4 5 -7.5t10 -3.5h51q34 0 39 36l30 187l30 -187q2 -16 12.5 -26t26.5 -10h51q6 0 10.5 4t3.5 10l-73 261q-1 5 -6.5 9t-10.5 4h-88q-13 0 -17 -13l-72 -261z" />
<glyph unicode="&#xdc;" d="M265 150q0 -69 52 -118q55 -52 148 -52q92 0 148 54q25 23 37 53.5t12 62.5v1258q0 15 -5 20.5t-20 5.5h-59q-22 0 -37.5 -15t-15.5 -38v-1226q0 -23 -15.5 -38.5t-46.5 -15.5q-32 0 -46.5 16t-14.5 38v1226q0 22 -16 37.5t-38 15.5h-59q-15 0 -19.5 -5.5t-4.5 -20.5 v-1258zM317 1568q0 -32 15.5 -50.5t45.5 -18.5q31 0 47.5 18.5t16.5 50.5t-16.5 50.5t-47.5 18.5q-30 0 -45.5 -18.5t-15.5 -50.5zM485 1568q0 -32 15.5 -50.5t46.5 -18.5t47 18.5t16 50.5t-16 50.5t-47 18.5q-30 0 -46 -18.5t-16 -50.5z" />
<glyph unicode="&#xdd;" horiz-adv-x="867" d="M227 1413q0 -5 1 -8l137 -937v-437q0 -31 30 -31h76q31 0 31 31v438l137 936q5 29 -25 29h-53q-22 0 -42 -14.5t-22 -37.5l-64 -681l-64 681q-2 22 -22 37t-42 15h-53q-25 0 -25 -21zM398 1516q0 -19 21 -19h18q23 0 35 12.5t23 40.5l60 177q5 14 5 23q0 32 -47 32h-36 q-13 0 -22.5 -6.5t-11.5 -17.5l-44 -236z" />
<glyph unicode="&#xde;" horiz-adv-x="905" d="M265 26q0 -15 4.5 -20.5t19.5 -5.5h59q22 0 38 15t16 37v218h59q45 0 82.5 12.5t64.5 36.5q27 22 40.5 53.5t13.5 68.5v554q0 36 -13.5 67.5t-39.5 55.5q-54 48 -144 48h-63v204q0 30 -15 47t-39 17h-59q-15 0 -19.5 -5.5t-4.5 -20.5v-1382zM402 388v659h61q30 0 46 -15 t16 -39v-550q0 -22 -15 -38.5t-42 -16.5h-66z" />
<glyph unicode="&#xdf;" d="M265 23q0 -13 4.5 -18t19.5 -5h59q22 0 38 15t16 37v1095q0 25 15.5 39.5t45.5 14.5q31 0 46.5 -15.5t15.5 -38.5v-312q0 -53 -47 -53h-18q-14 0 -16.5 -4t-2.5 -19v-51q0 -25 6.5 -37.5t27.5 -12.5h2q28 0 38 -14.5t10 -38.5v-450q0 -22 -13 -38t-43 -16 q-15 0 -21.5 -9.5t-6.5 -36.5v-54q0 -13 6 -17t18 -4q50 0 88.5 14.5t63.5 39.5q22 23 33.5 53t11.5 62v461q0 41 -16.5 69t-52.5 44q69 28 69 109v319q0 34 -11.5 65t-35.5 54q-52 52 -150 53q-97 0 -152 -53q-23 -22 -35.5 -53.5t-12.5 -65.5v-1128z" />
<glyph unicode="&#xe0;" horiz-adv-x="854" d="M226 19q0 -11 5 -15t18 -4h58q22 0 39.5 14.5t19.5 36.5l9 162h101l10 -162q1 -22 19 -36.5t40 -14.5h59q12 0 17 3.5t5 11.5q0 6 -1 10l-103 1154q-3 30 -33 30h-125q-16 0 -23 -7t-9 -23l-106 -1154v-6zM295 1536q0 -10 6 -23l61 -178q11 -28 22.5 -40.5t34.5 -12.5h18 q12 0 17.5 7t3.5 19l-44 235q-2 11 -11 18t-22 7h-38q-48 0 -48 -32zM382 319l44 693l1 5l42 -698h-87z" />
<glyph unicode="&#xe1;" horiz-adv-x="854" d="M226 19q0 -11 5 -15t18 -4h58q22 0 39.5 14.5t19.5 36.5l9 162h101l10 -162q1 -22 19 -36.5t40 -14.5h59q12 0 17 3.5t5 11.5q0 6 -1 10l-103 1154q-3 30 -33 30h-125q-16 0 -23 -7t-9 -23l-106 -1154v-6zM382 319l44 693l1 5l42 -698h-87zM386 1295q0 -19 21 -19h19 q23 0 35 12.5t22 40.5l60 177q5 14 5 24q0 32 -47 32h-36q-13 0 -22.5 -7t-11.5 -18l-44 -236z" />
<glyph unicode="&#xe2;" horiz-adv-x="854" d="M226 19q0 -11 5 -15t18 -4h58q22 0 39.5 14.5t19.5 36.5l9 162h101l10 -162q1 -22 19 -36.5t40 -14.5h59q12 0 17 3.5t5 11.5q0 6 -1 10l-103 1154q-3 30 -33 30h-125q-16 0 -23 -7t-9 -23l-106 -1154v-6zM291 1285q0 -4 5 -7t10 -3h50q34 0 40 35l30 188l29 -188 q2 -16 13 -25.5t27 -9.5h51q6 0 10.5 3.5t3.5 10.5l-74 260q-1 5 -6 9.5t-11 4.5h-87q-13 0 -17 -14l-73 -260zM382 319l44 693l1 5l42 -698h-87z" />
<glyph unicode="&#xe3;" horiz-adv-x="854" d="M226 19q0 -11 5 -15t18 -4h58q22 0 39.5 14.5t19.5 36.5l9 162h101l10 -162q1 -22 19 -36.5t40 -14.5h59q12 0 17 3.5t5 11.5q0 6 -1 10l-103 1154q-3 30 -33 30h-125q-16 0 -23 -7t-9 -23l-106 -1154v-6zM269 1345q0 -39 32 -58q29 -18 73 -18q29 0 61 18 q16 9 29.5 13.5t28.5 4.5q22 0 41 -10q1 -1 9 -6t22 -5q12 0 19 5.5t7 17.5v20q0 39 -33 61q-28 16 -74 16q-19 0 -33 -4.5t-31 -12.5q-17 -9 -29 -13t-27 -4q-14 0 -22 2.5t-18 6.5q-2 1 -10 5.5t-22 4.5q-23 0 -23 -23v-21zM382 319l44 693l1 5l42 -698h-87z" />
<glyph unicode="&#xe4;" horiz-adv-x="854" d="M226 19q0 -11 5 -15t18 -4h58q22 0 39.5 14.5t19.5 36.5l9 162h101l10 -162q1 -22 19 -36.5t40 -14.5h59q12 0 17 3.5t5 11.5q0 6 -1 10l-103 1154q-3 30 -33 30h-125q-16 0 -23 -7t-9 -23l-106 -1154v-6zM281 1347q0 -32 15 -50.5t45 -18.5q31 0 47.5 18.5t16.5 50.5 t-16.5 51t-47.5 19q-30 0 -45 -19t-15 -51zM382 319l44 693l1 5l42 -698h-87zM449 1347q0 -32 16 -50.5t46 -18.5q31 0 47 18.5t16 50.5t-16 51t-47 19q-30 0 -46 -19t-16 -51z" />
<glyph unicode="&#xe5;" horiz-adv-x="854" d="M226 19q0 -11 5 -15t18 -4h58q22 0 39.5 14.5t19.5 36.5l9 162h101l10 -162q1 -22 19 -36.5t40 -14.5h59q12 0 17 3.5t5 11.5q0 6 -1 10l-103 1154q-3 30 -33 30h-125q-16 0 -23 -7t-9 -23l-106 -1154v-6zM293 1388q0 -55 35 -86t98 -31q64 0 99 30.5t35 86.5 q0 55 -35 84.5t-99 29.5q-63 0 -98 -29.5t-35 -84.5zM381 1388q0 44 45 43q22 0 33.5 -11.5t11.5 -31.5q0 -43 -45 -43t-45 43zM382 319l44 693l1 5l42 -698h-87z" />
<glyph unicode="&#xe6;" horiz-adv-x="1029" d="M226 15q0 -9 5 -12t16 -3h47q32 0 47.5 10.5t20.5 33.5l22 169h86v-188q0 -14 5 -19.5t20 -5.5h269q25 0 25 28v20q0 70 -64 70h-118v419h87q75 0 75 71v11q0 19 -5 27.5t-19 8.5h-138v435h118q64 0 64 71v20q0 28 -25 28h-331q-30 0 -40.5 -5t-12.5 -25l-153 -1153 q-1 -4 -1 -11zM394 327l69 690h7v-690h-76z" />
<glyph unicode="&#xe7;" horiz-adv-x="931" d="M267 150q0 -64 39.5 -108.5t108.5 -57.5q1 -29 11 -57q12 -31 36 -75q7 -14 7 -28q0 -10 -6 -14q-12 -9 -32 -8h-14q-14 0 -24.5 -6t-10.5 -19l1 -39q0 -9 11 -12q10 -3 34 -3q63 0 96 20q39 25 39 80q0 32 -7 51q-9 23 -28 52l-11 19q-11 15 -14 38q74 11 118 56.5 t44 110.5v359q0 20 -25 20h-62q-20 0 -33 -8q-18 -12 -18 -32v-334q0 -21 -14.5 -37.5t-46.5 -16.5q-31 0 -46.5 15t-15.5 39v899q0 23 15.5 38.5t45.5 15.5t46.5 -15.5t16.5 -38.5v-345q0 -19 16 -29.5t35 -10.5h62q23 0 24 21v369q0 35 -14 66t-40 55q-55 50 -144 50 q-45 0 -82 -13t-64 -36t-40.5 -54.5t-13.5 -67.5v-909z" />
<glyph unicode="&#xe8;" horiz-adv-x="817" d="M265 26q0 -16 5 -21t24 -5h265q24 0 24 28v20q0 70 -62 70h-119v419h77q38 0 61 15t23 54v21q0 28 -24 28h-137v435h119q30 0 46 17.5t16 53.5v20q0 28 -24 28h-245q-25 0 -33.5 -1.5t-12 -6t-3.5 -18.5v-1157zM290 1530q0 -10 5 -24l61 -177q11 -28 22.5 -40.5 t35.5 -12.5h18q12 0 17 7t3 18l-43 236q-3 11 -12 18t-22 7h-37q-48 0 -48 -32z" />
<glyph unicode="&#xe9;" horiz-adv-x="817" d="M265 26q0 -16 5 -21t24 -5h265q24 0 24 28v20q0 70 -62 70h-119v419h77q38 0 61 15t23 54v21q0 28 -24 28h-137v435h119q30 0 46 17.5t16 53.5v20q0 28 -24 28h-245q-25 0 -33.5 -1.5t-12 -6t-3.5 -18.5v-1157zM378 1295q0 -19 21 -19h18q23 0 35 12.5t23 40.5l59 177 q5 14 6 24q0 32 -47 32h-36q-13 0 -22.5 -7t-12.5 -18l-43 -236z" />
<glyph unicode="&#xea;" horiz-adv-x="817" d="M265 26q0 -16 5 -21t24 -5h265q24 0 24 28v20q0 70 -62 70h-119v419h77q38 0 61 15t23 54v21q0 28 -24 28h-137v435h119q30 0 46 17.5t16 53.5v20q0 28 -24 28h-245q-25 0 -33.5 -1.5t-12 -6t-3.5 -18.5v-1157zM278 1285q0 -4 5 -7t10 -3h50q34 0 40 35l30 188l30 -188 q2 -16 12.5 -25.5t26.5 -9.5h51q6 0 10.5 3.5t3.5 10.5l-73 260q-1 5 -6.5 9.5t-10.5 4.5h-88q-13 0 -17 -14l-73 -260z" />
<glyph unicode="&#xeb;" horiz-adv-x="817" d="M265 26q0 -16 5 -21t24 -5h265q24 0 24 28v20q0 70 -62 70h-119v419h77q38 0 61 15t23 54v21q0 28 -24 28h-137v435h119q30 0 46 17.5t16 53.5v20q0 28 -24 28h-245q-25 0 -33.5 -1.5t-12 -6t-3.5 -18.5v-1157zM267 1347q0 -32 15.5 -50.5t44.5 -18.5q31 0 47.5 18.5 t16.5 50.5t-16.5 51t-47.5 19q-29 0 -44.5 -19t-15.5 -51zM435 1347q0 -32 15.5 -50.5t46.5 -18.5t47 18.5t16 50.5t-16 51t-47 19t-46.5 -19t-15.5 -51z" />
<glyph unicode="&#xec;" horiz-adv-x="666" d="M207 1530q0 -10 5 -24l61 -177q11 -28 22.5 -40.5t35.5 -12.5h18q12 0 17 7t3 18l-44 236q-2 11 -11 18t-22 7h-37q-48 0 -48 -32zM265 31q0 -31 29 -31h77q31 0 31 31v1153q0 15 -4 20t-20 5h-59q-22 0 -38 -15.5t-16 -38.5v-1124z" />
<glyph unicode="&#xed;" horiz-adv-x="666" d="M265 31q0 -31 29 -31h77q31 0 31 31v1153q0 15 -4 20t-20 5h-59q-22 0 -38 -15.5t-16 -38.5v-1124zM300 1295q0 -19 21 -19h18q23 0 35 12.5t23 40.5l60 177q5 14 5 24q0 32 -47 32h-36q-13 0 -22.5 -7t-11.5 -18l-44 -236z" />
<glyph unicode="&#xee;" horiz-adv-x="666" d="M198 1285q0 -4 5 -7t10 -3h50q34 0 40 35l30 188l30 -188q2 -16 12.5 -25.5t26.5 -9.5h51q6 0 10.5 3.5t3.5 10.5l-73 260q-1 5 -6.5 9.5t-10.5 4.5h-88q-13 0 -17 -14l-73 -260zM265 31q0 -31 29 -31h77q31 0 31 31v1153q0 15 -4 20t-20 5h-59q-22 0 -38 -15.5 t-16 -38.5v-1124z" />
<glyph unicode="&#xef;" horiz-adv-x="666" d="M187 1347q0 -32 15.5 -50.5t44.5 -18.5q31 0 47.5 18.5t16.5 50.5t-16.5 51t-47.5 19q-29 0 -44.5 -19t-15.5 -51zM265 31q0 -31 29 -31h77q31 0 31 31v1153q0 15 -4 20t-20 5h-59q-22 0 -38 -15.5t-16 -38.5v-1124zM355 1347q0 -32 16 -50.5t46 -18.5q31 0 47 18.5 t16 50.5t-16 51t-47 19q-30 0 -46 -19t-16 -51z" />
<glyph unicode="&#xf0;" horiz-adv-x="925" d="M189 608q0 -26 14 -42t36 -16h26v-524q0 -15 4.5 -20.5t19.5 -5.5h176q90 0 143 47q54 48 54 127v862q0 31 -11.5 61t-33.5 55q-25 26 -63.5 41.5t-88.5 15.5h-176q-15 0 -19.5 -5.5t-4.5 -20.5v-522h-56q-20 0 -20 -19v-34zM402 118v432h64q12 0 19.5 9.5t7.5 21.5v61 q0 19 -20 19h-71v429h61q30 0 46 -15.5t16 -38.5v-863q0 -22 -15 -38.5t-42 -16.5h-66z" />
<glyph unicode="&#xf1;" horiz-adv-x="922" d="M265 26q0 -14 5 -20t20 -6h57q25 0 41 15.5t14 38.5l-24 726l137 -699q9 -38 19 -55q16 -26 42 -26h57q15 0 20 6t5 20v1158q0 14 -4.5 19.5t-19.5 5.5h-60q-22 0 -39 -15.5t-14 -38.5l24 -723l-135 690q-18 86 -61 87h-60q-15 0 -19.5 -5.5t-4.5 -19.5v-1158zM303 1345 q0 -39 32 -58q29 -18 74 -18q29 0 60 18q16 9 29.5 13.5t28.5 4.5q23 0 42 -10q1 -1 9 -6t21 -5q12 0 19 5.5t7 17.5v20q0 39 -33 61q-28 16 -74 16q-19 0 -33 -4.5t-31 -12.5q-17 -9 -29 -13t-27 -4q-14 0 -22 2.5t-18 6.5q-2 1 -10 5.5t-22 4.5q-23 0 -23 -23v-21z" />
<glyph unicode="&#xf2;" horiz-adv-x="931" d="M267 153q0 -32 12 -63t37 -55q54 -54 150 -54q95 0 151 55q48 48 48 117v905q0 34 -12.5 65t-37.5 55q-55 52 -150 52q-93 0 -147 -52q-26 -23 -38.5 -55t-12.5 -65v-905zM338 1529q0 -10 5 -24l61 -177q11 -28 22.5 -40.5t35.5 -12.5h18q12 0 17 7t3 18l-43 236 q-3 11 -12 18t-22 7h-37q-48 0 -48 -32zM404 156v898q0 23 15.5 38.5t45.5 15.5q31 0 46.5 -15.5t15.5 -38.5v-898q0 -23 -15 -39t-45 -16q-31 0 -47 15.5t-16 39.5z" />
<glyph unicode="&#xf3;" horiz-adv-x="931" d="M267 153q0 -32 12 -63t37 -55q54 -54 150 -54q95 0 151 55q48 48 48 117v905q0 34 -12.5 65t-37.5 55q-55 52 -150 52q-93 0 -147 -52q-26 -23 -38.5 -55t-12.5 -65v-905zM404 156v898q0 23 15.5 38.5t45.5 15.5q31 0 46.5 -15.5t15.5 -38.5v-898q0 -23 -15 -39t-45 -16 q-31 0 -47 15.5t-16 39.5zM425 1295q0 -19 21 -19h18q23 0 35 12.5t23 40.5l59 177q5 14 6 24q0 32 -47 32h-37q-13 0 -22.5 -7t-11.5 -18l-43 -236z" />
<glyph unicode="&#xf4;" horiz-adv-x="931" d="M267 153q0 -32 12 -63t37 -55q54 -54 150 -54q95 0 151 55q48 48 48 117v905q0 34 -12.5 65t-37.5 55q-55 52 -150 52q-93 0 -147 -52q-26 -23 -38.5 -55t-12.5 -65v-905zM331 1285q0 -4 4.5 -7t10.5 -3h50q34 0 39 35l30 188l30 -188q2 -16 12.5 -25.5t26.5 -9.5h52 q6 0 10.5 3.5t2.5 10.5l-73 260q-1 5 -6.5 9.5t-10.5 4.5h-88q-13 0 -17 -14l-72 -260zM404 156v898q0 23 15.5 38.5t45.5 15.5q31 0 46.5 -15.5t15.5 -38.5v-898q0 -23 -15 -39t-45 -16q-31 0 -47 15.5t-16 39.5z" />
<glyph unicode="&#xf5;" horiz-adv-x="931" d="M267 153q0 -32 12 -63t37 -55q54 -54 150 -54q95 0 151 55q48 48 48 117v905q0 34 -12.5 65t-37.5 55q-55 52 -150 52q-93 0 -147 -52q-26 -23 -38.5 -55t-12.5 -65v-905zM306 1345q0 -39 32 -58q29 -18 74 -18q29 0 61 18q16 9 29 13.5t28 4.5q23 0 42 -10q1 -1 9 -6 t22 -5q12 0 18.5 5.5t6.5 17.5v20q0 39 -33 61q-28 16 -73 16q-19 0 -33 -4.5t-31 -12.5q-17 -9 -29.5 -13t-27.5 -4q-14 0 -22 2.5t-17 6.5q-2 1 -10.5 5.5t-21.5 4.5q-23 0 -24 -23v-21zM404 156v898q0 23 15.5 38.5t45.5 15.5q31 0 46.5 -15.5t15.5 -38.5v-898 q0 -23 -15 -39t-45 -16q-31 0 -47 15.5t-16 39.5z" />
<glyph unicode="&#xf6;" horiz-adv-x="931" d="M267 153q0 -32 12 -63t37 -55q54 -54 150 -54q95 0 151 55q48 48 48 117v905q0 34 -12.5 65t-37.5 55q-55 52 -150 52q-93 0 -147 -52q-26 -23 -38.5 -55t-12.5 -65v-905zM319 1347q0 -32 15.5 -50.5t45.5 -18.5q31 0 47.5 18.5t16.5 50.5t-16.5 51t-47.5 19 q-30 0 -45.5 -19t-15.5 -51zM404 156v898q0 23 15.5 38.5t45.5 15.5q31 0 46.5 -15.5t15.5 -38.5v-898q0 -23 -15 -39t-45 -16q-31 0 -47 15.5t-16 39.5zM487 1347q0 -32 16 -50.5t46 -18.5q31 0 47 18.5t16 50.5t-16 51t-47 19q-30 0 -46 -19t-16 -51z" />
<glyph unicode="&#xf7;" horiz-adv-x="949" d="M278 656q0 -15 7.5 -20.5t20.5 -5.5h321q32 0 48.5 19.5t16.5 42.5v33q0 15 -5 19.5t-20 4.5h-325q-31 0 -47.5 -16t-16.5 -41v-36zM402 492q0 -33 21.5 -52.5t62.5 -19.5q43 0 64.5 19t21.5 53t-21.5 52.5t-64.5 18.5q-41 0 -62.5 -19t-21.5 -52zM405 885 q0 -33 21.5 -52t63.5 -19q43 0 64 18.5t21 52.5t-21.5 53t-63.5 19t-63.5 -19.5t-21.5 -52.5z" />
<glyph unicode="&#xf8;" horiz-adv-x="931" d="M262 -133q0 -16 23 -16h23q21 0 37.5 14t21.5 37l19 91q37 -12 78 -12q94 0 151 55q48 48 48 117v906q0 52 -29 95l39 178q1 3 1 9q0 18 -20 18h-21q-30 0 -45 -19q-9 -10 -17 -35l-21 -90q-39 15 -86 15t-85 -14t-63 -38q-25 -22 -38 -53.5t-13 -65.5v-906 q0 -61 37 -106l-39 -172q-1 -3 -1 -8zM402 156v899q0 23 15.5 38.5t46.5 15.5q30 0 46 -15.5t16 -38.5v-899q0 -23 -15.5 -39t-45.5 -16q-31 0 -47 15.5t-16 39.5z" />
<glyph unicode="&#xf9;" horiz-adv-x="925" d="M265 150q0 -69 52 -118q55 -52 148 -52q92 0 148 54q25 23 37 53.5t12 62.5v1034q0 15 -5 20.5t-20 5.5h-59q-22 0 -37.5 -15t-15.5 -38v-1002q0 -23 -15.5 -38.5t-46.5 -15.5q-32 0 -46.5 16t-14.5 38v1002q0 22 -16 37.5t-38 15.5h-59q-15 0 -19.5 -5.5t-4.5 -20.5 v-1034zM331 1530q0 -10 5 -24l61 -177q11 -28 22.5 -40.5t34.5 -12.5h19q12 0 17 7t3 18l-44 236q-2 11 -11 18t-22 7h-37q-48 0 -48 -32z" />
<glyph unicode="&#xfa;" horiz-adv-x="925" d="M265 150q0 -69 52 -118q55 -52 148 -52q92 0 148 54q25 23 37 53.5t12 62.5v1034q0 15 -5 20.5t-20 5.5h-59q-22 0 -37.5 -15t-15.5 -38v-1002q0 -23 -15.5 -38.5t-46.5 -15.5q-32 0 -46.5 16t-14.5 38v1002q0 22 -16 37.5t-38 15.5h-59q-15 0 -19.5 -5.5t-4.5 -20.5 v-1034zM420 1295q0 -19 22 -19h18q23 0 35 12.5t22 40.5l60 177q5 14 5 24q0 32 -47 32h-36q-13 0 -22.5 -7t-11.5 -18l-44 -236z" />
<glyph unicode="&#xfb;" horiz-adv-x="925" d="M265 150q0 -69 52 -118q55 -52 148 -52q92 0 148 54q25 23 37 53.5t12 62.5v1034q0 15 -5 20.5t-20 5.5h-59q-22 0 -37.5 -15t-15.5 -38v-1002q0 -23 -15.5 -38.5t-46.5 -15.5q-32 0 -46.5 16t-14.5 38v1002q0 22 -16 37.5t-38 15.5h-59q-15 0 -19.5 -5.5t-4.5 -20.5 v-1034zM327 1285q0 -4 5 -7t10 -3h51q34 0 39 35l30 188l30 -188q2 -16 12.5 -25.5t26.5 -9.5h51q6 0 10.5 3.5t3.5 10.5l-73 260q-1 5 -6.5 9.5t-10.5 4.5h-88q-13 0 -17 -14l-72 -260z" />
<glyph unicode="&#xfc;" horiz-adv-x="925" d="M265 150q0 -69 52 -118q55 -52 148 -52q92 0 148 54q25 23 37 53.5t12 62.5v1034q0 15 -5 20.5t-20 5.5h-59q-22 0 -37.5 -15t-15.5 -38v-1002q0 -23 -15.5 -38.5t-46.5 -15.5q-32 0 -46.5 16t-14.5 38v1002q0 22 -16 37.5t-38 15.5h-59q-15 0 -19.5 -5.5t-4.5 -20.5 v-1034zM317 1347q0 -32 15.5 -50.5t45.5 -18.5q31 0 47.5 18.5t16.5 50.5t-16.5 51t-47.5 19q-30 0 -45.5 -19t-15.5 -51zM485 1347q0 -32 15.5 -50.5t46.5 -18.5t47 18.5t16 50.5t-16 51t-47 19q-30 0 -46 -19t-16 -51z" />
<glyph unicode="&#xfd;" horiz-adv-x="844" d="M228 1184l126 -785v-373q0 -26 31 -26h76q31 0 31 26v373l127 785l1 7q0 17 -26 18h-53q-23 0 -42.5 -12.5t-20.5 -30.5l-55 -547l-54 547q-2 18 -22 30.5t-42 12.5h-53q-16 0 -21 -6t-3 -19zM388 1295q0 -19 22 -19h18q23 0 35 12.5t22 40.5l60 177q5 14 5 24 q0 32 -47 32h-36q-13 0 -22.5 -7t-11.5 -18l-44 -236z" />
<glyph unicode="&#xfe;" horiz-adv-x="900" d="M265 26q0 -15 4.5 -20.5t19.5 -5.5h59q22 0 38 15t16 37v155h59q45 0 82.5 13.5t64.5 36.5q27 22 40.5 53.5t13.5 68.5v449q0 36 -13.5 67.5t-39.5 54.5q-57 49 -144 49h-63v154q0 25 -15 40.5t-39 15.5h-59q-15 0 -19.5 -5.5t-4.5 -20.5v-1157zM402 326v555h61 q30 0 46 -15.5t16 -38.5v-447q0 -21 -15 -37.5t-42 -16.5h-66z" />
<glyph unicode="&#xff;" horiz-adv-x="844" d="M228 1184l126 -785v-373q0 -26 31 -26h76q31 0 31 26v373l127 785l1 7q0 17 -26 18h-53q-23 0 -42.5 -12.5t-20.5 -30.5l-55 -547l-54 547q-2 18 -22 30.5t-42 12.5h-53q-16 0 -21 -6t-3 -19zM276 1347q0 -32 15.5 -50.5t45.5 -18.5q31 0 47.5 18.5t16.5 50.5t-16.5 51 t-47.5 19q-30 0 -45.5 -19t-15.5 -51zM445 1347q0 -32 16 -50.5t46 -18.5q31 0 47 18.5t16 50.5t-16 51t-47 19q-30 0 -46 -19t-16 -51z" />
<glyph unicode="&#x152;" horiz-adv-x="1096" d="M271 153q0 -55 31 -99q36 -50 107 -61q34 -10 68 -10q48 0 90 18q5 -1 16 -1h20h218q25 0 25 28v20q0 70 -63 70h-114v533h94q64 0 64 72v11q0 18 -5.5 26.5t-20.5 8.5h-132v546h114q63 0 63 71v20q0 28 -25 28h-246h-2q0 -1 -1 -1q-45 21 -103 21q-91 0 -146 -50 q-26 -23 -39 -54.5t-13 -66.5v-1130zM409 156v1123q0 23 15 38.5t45 15.5t46 -15.5t16 -38.5v-1123q0 -23 -15 -39t-46 -16q-30 0 -45.5 15.5t-15.5 39.5z" />
<glyph unicode="&#x153;" horiz-adv-x="1079" d="M267 153q0 -55 31 -99q35 -50 105 -61q34 -10 70 -10q48 0 90 18q5 -1 16 -1h19h223q25 0 25 28v20q0 70 -63 70h-120l2 417h98q64 0 64 73v11q0 18 -5.5 26.5t-20.5 8.5h-136v194v122v66q-1 14 -2 31v11v13h120q63 0 63 71v20q0 28 -25 28h-250l-2 -1h-2q-45 21 -102 21 q-90 0 -147 -50q-51 -46 -51 -121v-906zM403 156v899q0 23 15.5 38.5t46.5 15.5q30 0 46 -15.5t16 -38.5v-899q0 -23 -15.5 -39t-45.5 -16q-31 0 -47 15.5t-16 39.5z" />
<glyph unicode="&#x178;" horiz-adv-x="867" d="M227 1413q0 -5 1 -8l137 -937v-437q0 -31 30 -31h76q31 0 31 31v438l137 936q5 29 -25 29h-53q-22 0 -42 -14.5t-22 -37.5l-64 -681l-64 681q-2 22 -22 37t-42 15h-53q-25 0 -25 -21zM287 1568q0 -32 15.5 -50.5t45.5 -18.5q31 0 47.5 18.5t16.5 50.5t-16.5 50.5 t-47.5 18.5q-30 0 -45.5 -18.5t-15.5 -50.5zM455 1568q0 -32 16 -50.5t46 -18.5q31 0 47 18.5t16 50.5t-16 50.5t-47 18.5q-30 0 -46 -18.5t-16 -50.5z" />
<glyph unicode="&#x2c6;" horiz-adv-x="793" d="M217 1285q0 -4 4.5 -7t9.5 -3h51q34 0 39 35l30 188l30 -188q2 -16 12.5 -25.5t26.5 -9.5h51q6 0 10.5 3.5t3.5 10.5l-73 260q-1 5 -6.5 9.5t-10.5 4.5h-88q-13 0 -17 -14l-72 -260z" />
<glyph unicode="&#x2dc;" horiz-adv-x="871" d="M268 1345q0 -39 32 -58q29 -18 73 -18q29 0 61 18q16 9 29.5 13.5t28.5 4.5q22 0 41 -10q1 -1 9 -6t22 -5q12 0 19 5.5t7 17.5v20q0 39 -33 61q-28 16 -74 16q-19 0 -33 -4.5t-31 -12.5q-17 -9 -29 -13t-27 -4q-14 0 -22 2.5t-18 6.5q-2 1 -10 5.5t-22 4.5q-23 0 -23 -23 v-21z" />
<glyph unicode="&#x2000;" horiz-adv-x="891" />
<glyph unicode="&#x2001;" horiz-adv-x="1783" />
<glyph unicode="&#x2002;" horiz-adv-x="891" />
<glyph unicode="&#x2003;" horiz-adv-x="1783" />
<glyph unicode="&#x2004;" horiz-adv-x="594" />
<glyph unicode="&#x2005;" horiz-adv-x="445" />
<glyph unicode="&#x2006;" horiz-adv-x="297" />
<glyph unicode="&#x2007;" horiz-adv-x="297" />
<glyph unicode="&#x2008;" horiz-adv-x="222" />
<glyph unicode="&#x2009;" horiz-adv-x="356" />
<glyph unicode="&#x200a;" horiz-adv-x="99" />
<glyph unicode="&#x2010;" horiz-adv-x="855" d="M262 533q0 -15 7 -20t19 -5h253q25 0 39 17.5t14 44.5v39q0 15 -5.5 19.5t-18.5 4.5h-256q-23 0 -37.5 -15.5t-14.5 -39.5v-45z" />
<glyph unicode="&#x2011;" horiz-adv-x="855" d="M262 533q0 -15 7 -20t19 -5h253q25 0 39 17.5t14 44.5v39q0 15 -5.5 19.5t-18.5 4.5h-256q-23 0 -37.5 -15.5t-14.5 -39.5v-45z" />
<glyph unicode="&#x2012;" horiz-adv-x="855" d="M262 533q0 -15 7 -20t19 -5h253q25 0 39 17.5t14 44.5v39q0 15 -5.5 19.5t-18.5 4.5h-256q-23 0 -37.5 -15.5t-14.5 -39.5v-45z" />
<glyph unicode="&#x2013;" horiz-adv-x="795" d="M262 535q0 -15 7 -20t19 -5h194q23 0 37.5 17.5t14.5 44.5v34q0 15 -4.5 19.5t-18.5 4.5h-197q-23 0 -37.5 -15.5t-14.5 -38.5v-41z" />
<glyph unicode="&#x2014;" horiz-adv-x="1100" d="M262 533q0 -15 7 -20t19 -5h498q25 0 39 17.5t14 44.5v39q0 15 -5 19.5t-19 4.5h-501q-23 0 -37.5 -15.5t-14.5 -39.5v-45z" />
<glyph unicode="&#x2018;" horiz-adv-x="659" d="M268 1161q0 -35 47 -36h53q25 0 25 25v265q-1 22 -21 22h-32q-23 0 -32.5 -11t-16.5 -37l-21 -208q-2 -15 -2 -20z" />
<glyph unicode="&#x2019;" horiz-adv-x="659" d="M267 1146q0 -22 20 -22h32q23 0 33 11t16 37l21 208q2 15 2 21q0 35 -46 35h-54q-25 0 -24 -25v-265z" />
<glyph unicode="&#x201a;" horiz-adv-x="644" d="M267 52q0 -22 16 -36t41 -14h34q19 0 20 20v314q-1 21 -20 21h-34q-26 0 -41.5 -14t-15.5 -37v-254z" />
<glyph unicode="&#x201c;" horiz-adv-x="823" d="M268 1161q0 -35 47 -36h53q25 0 25 25v265q-1 22 -21 22h-32q-23 0 -32.5 -11t-16.5 -37l-21 -208q-2 -15 -2 -20zM432 1161q0 -35 47 -36h53q25 0 25 25v265q0 22 -20 22h-32q-23 0 -33 -11t-17 -37l-21 -208q-2 -15 -2 -20z" />
<glyph unicode="&#x201d;" horiz-adv-x="823" d="M267 1146q0 -22 20 -22h32q23 0 33 11t16 37l21 208q2 15 2 21q0 35 -46 35h-54q-25 0 -24 -25v-265zM431 1146q0 -22 20 -22h32q23 0 33 11t16 37l22 208q2 15 2 21q0 35 -47 35h-54q-25 0 -24 -25v-265z" />
<glyph unicode="&#x201e;" horiz-adv-x="808" d="M267 45q0 -22 16 -36t41 -14h34q19 0 20 20v314q-1 21 -20 21h-34q-26 0 -41.5 -14.5t-15.5 -36.5v-254zM431 45q0 -22 16 -36t42 -14h34q19 0 19 20v314q0 21 -19 21h-34q-26 0 -42 -14.5t-16 -36.5v-254z" />
<glyph unicode="&#x2022;" horiz-adv-x="827" d="M269 649q0 -62 39.5 -97t114.5 -35q78 0 117 34.5t39 97.5t-39 97t-117 34q-75 0 -114.5 -35t-39.5 -96z" />
<glyph unicode="&#x2026;" horiz-adv-x="1127" d="M245 57q0 -33 21.5 -52.5t63.5 -19.5q43 0 64 18.5t21 53.5q0 34 -21.5 52.5t-63.5 18.5t-63.5 -19t-21.5 -52zM479 57q0 -33 21.5 -52.5t62.5 -19.5q43 0 64.5 18.5t21.5 53.5q0 34 -21.5 52.5t-64.5 18.5q-41 0 -62.5 -19t-21.5 -52zM713 57q0 -33 21 -52.5t63 -19.5 q43 0 64 18.5t21 53.5q0 34 -21.5 52.5t-63.5 18.5t-63 -19t-21 -52z" />
<glyph unicode="&#x202f;" horiz-adv-x="356" />
<glyph unicode="&#x2039;" horiz-adv-x="779" d="M267 592l122 -222q6 -13 22.5 -23.5t33.5 -10.5h51q7 0 12 3.5t3 8.5l-141 244l141 244l1 3q0 4 -5 6.5t-11 2.5h-51q-17 0 -33 -10t-23 -23z" />
<glyph unicode="&#x203a;" horiz-adv-x="779" d="M268 345q0 -4 4.5 -6.5t11.5 -2.5h51q17 0 33 10t22 23l123 223l-123 222q-6 13 -22 23.5t-33 10.5h-51q-7 0 -12 -3.5t-3 -8.5l141 -244l-141 -244z" />
<glyph unicode="&#x205f;" horiz-adv-x="445" />
<glyph unicode="&#x20ac;" horiz-adv-x="958" d="M225 642q0 -26 14 -41.5t36 -15.5h19v-435q0 -36 14 -67.5t40 -53.5q54 -49 144 -49q45 0 82.5 12.5t64.5 36.5q26 22 39.5 53.5t13.5 67.5v297q0 20 -24 20h-62q-19 0 -35 -10t-16 -30v-272q0 -21 -14.5 -37.5t-46.5 -16.5q-31 0 -46.5 15t-15.5 39v430h67q22 0 36 16 t14 41v21q0 18 -20 19h-97v83h110q22 0 36 16t14 41v22q0 19 -20 19h-140v416q0 23 15.5 38.5t45.5 15.5t46.5 -15.5t16.5 -38.5v-272q0 -19 16 -30t35 -11h62q23 0 23 22v296q0 35 -13.5 66t-39.5 55q-27 23 -63.5 36.5t-80.5 13.5q-45 0 -82.5 -13t-63.5 -36 q-27 -23 -41 -54t-14 -68v-421h-49q-20 0 -20 -19v-22q0 -26 14 -41.5t36 -15.5h19v-83h-49q-20 0 -20 -19v-21z" />
<glyph unicode="&#x2122;" horiz-adv-x="1326" d="M235 1396q0 -55 50 -55h61v-822q0 -25 24 -24h60q25 0 24 24v822h58q50 0 50 55v16q0 22 -19 23h-290q-18 -1 -18 -23v-16zM595 515q0 -20 20 -20h43q19 0 32.5 12t12.5 32l-15 634l3 25l79 -679q2 -12 8 -18t19 -6h57q13 0 19.5 6t8.5 18l77 679l5 -25l-11 -634 q0 -19 13 -31.5t32 -12.5h43q19 0 19 20v900q0 12 -3 16t-15 4h-59q-41 0 -57 -6q-30 -10 -31 -35l-68 -728l-68 728q-1 18 -14.5 29.5t-33.5 11.5h-97q-12 0 -15.5 -4t-3.5 -16v-900z" />
<glyph unicode="&#x25fc;" horiz-adv-x="1210" d="M0 0v1211h1211v-1211h-1211z" />
<glyph unicode="&#xfb01;" horiz-adv-x="1047" d="M265 26q0 -15 4.5 -20.5t19.5 -5.5h59q23 0 38.5 16t15.5 37v484h98q30 0 46.5 17.5t16.5 51.5v21q0 28 -24 28h-137v435h119q30 0 46 17.5t16 53.5v22q0 26 -24 26h-265q-18 0 -23.5 -5.5t-5.5 -20.5v-1157zM645 31q0 -31 30 -31h77q31 0 31 31v1153q0 15 -4.5 20 t-20.5 5h-58q-22 0 -38.5 -15.5t-16.5 -38.5v-1124z" />
<glyph unicode="&#xfb02;" horiz-adv-x="1181" d="M265 26q0 -15 4.5 -20.5t19.5 -5.5h59q23 0 38.5 16t15.5 37v484h98q30 0 46.5 17.5t16.5 51.5v21q0 28 -24 28h-137v435h119q30 0 46 17.5t16 53.5v22q0 26 -24 26h-265q-18 0 -23.5 -5.5t-5.5 -20.5v-1157zM645 27q0 -16 5 -21.5t20 -5.5h267q23 0 23 28v20 q0 70 -62 70h-115v1035q0 25 -15 40.5t-39 15.5h-59q-15 0 -20 -5.5t-5 -20.5v-1156z" />
<glyph unicode="&#xfb03;" horiz-adv-x="1429" d="M265 26q0 -15 4.5 -20.5t19.5 -5.5h59q23 0 38.5 16t15.5 37v484h98q30 0 46.5 17.5t16.5 51.5v21q0 28 -24 28h-137v435h119q30 0 46 17.5t16 53.5v22q0 26 -24 26h-265q-18 0 -23.5 -5.5t-5.5 -20.5v-1157zM645 26q0 -15 5 -20.5t20 -5.5h59q23 0 38.5 16t15.5 37v484 h98q30 0 46.5 17.5t16.5 51.5v21q0 28 -25 28h-136v435h118q30 0 46.5 17.5t16.5 53.5v22q0 26 -24 26h-265q-18 0 -24 -5.5t-6 -20.5v-1157zM1027 31q0 -31 30 -31h77q31 0 31 31v1153q0 15 -4.5 20t-20.5 5h-58q-22 0 -38.5 -15.5t-16.5 -38.5v-1124z" />
<glyph unicode="&#xfb04;" horiz-adv-x="1562" d="M265 26q0 -15 4.5 -20.5t19.5 -5.5h59q23 0 38.5 16t15.5 37v484h98q30 0 46.5 17.5t16.5 51.5v21q0 28 -24 28h-137v435h119q30 0 46 17.5t16 53.5v22q0 26 -24 26h-265q-18 0 -23.5 -5.5t-5.5 -20.5v-1157zM645 26q0 -15 5 -20.5t20 -5.5h59q23 0 38.5 16t15.5 37v484 h98q30 0 46.5 17.5t16.5 51.5v21q0 28 -25 28h-136v435h118q30 0 46.5 17.5t16.5 53.5v22q0 26 -24 26h-265q-18 0 -24 -5.5t-6 -20.5v-1157zM1027 27q0 -16 5 -21.5t20 -5.5h266q24 0 24 28v20q0 70 -62 70h-115v1035q0 25 -15 40.5t-40 15.5h-58q-15 0 -20 -5.5t-5 -20.5 v-1156z" />
</font>
</defs>
</svg>
